<?xml version="1.0" standalone="no"?>
<!DOCTYPE svg PUBLIC "-//W3C//DTD SVG 1.1//EN" "http://www.w3.org/Graphics/SVG/1.1/DTD/svg11.dtd">
<svg xmlns="http://www.w3.org/2000/svg">
<metadata>Copyright (C) 2018 by original authors @ fontello.com</metadata>
<defs>
<font id="medical-fonts" horiz-adv-x="1000" >
<font-face font-family="medical-fonts" font-weight="400" font-stretch="normal" units-per-em="1000" ascent="850" descent="-150" />
<missing-glyph horiz-adv-x="1000" />
<glyph glyph-name="heart" unicode="&#xe800;" d="M500-79q-14 0-25 10l-348 336q-5 5-15 15t-31 37-38 54-30 67-13 77q0 123 71 192t196 70q34 0 70-12t67-33 54-38 42-38q20 20 42 38t54 38 67 33 70 12q125 0 196-70t71-192q0-123-128-251l-347-335q-10-10-25-10z" horiz-adv-x="1000" />

<glyph glyph-name="heart-empty" unicode="&#xe801;" d="M929 517q0 46-12 80t-31 55-46 33-52 18-55 4-62-14-62-36-48-40-34-34q-10-13-27-13t-27 13q-14 15-34 34t-48 40-62 36-62 14-55-4-52-18-46-33-31-55-12-80q0-93 105-198l324-312 324 312q105 105 105 198z m71 0q0-123-128-251l-347-335q-10-10-25-10t-25 10l-348 336q-5 5-15 15t-31 37-38 54-30 67-13 77q0 123 71 192t196 70q34 0 70-12t67-33 54-38 42-38q20 20 42 38t54 38 67 33 70 12q125 0 196-70t71-192z" horiz-adv-x="1000" />

<glyph glyph-name="pharmacy" unicode="&#xe829;" d="M275 825c-152 0-275-56-275-125l0-150c0-69 123-125 275-125 152 0 275 56 275 125l0 150c0 69-123 125-275 125z m-275-375l0-450c0-69 123-125 275-125 152 0 275 56 275 125l0 450c0-69-123-125-275-125-152 0-275 56-275 125z m150-225c38-9 80-14 125-14 45 0 87 5 125 14l0-200c-38-9-80-14-125-14-45 0-87 5-125 14z" horiz-adv-x="550" />

<glyph glyph-name="dna-strand" unicode="&#xe900;" d="M255-137c0 0 0 0-1 0-10 0-19 8-19 19 0 8 6 16 13 18l0 0c10 4 243 93 181 471-68 413 202 465 204 466 1 0 2 0 3 0 11 0 20-9 20-19 0-10-7-18-16-20l0 0c-10-1-234-47-173-422 36-213-21-340-75-410-34-45-78-80-129-102l-2-1c-1 0-2 0-4 0-1 0-2 0-2 0l0 0z m0-13c0 0 0 0 0 0-18 0-33 14-33 32 0 14 9 26 22 30l0 0c9 4 233 89 173 457-71 425 211 480 214 481 1 0 3 0 4 0 18 0 33-15 33-32 0-16-11-29-26-32l0 0c-9-1-222-45-162-407 36-218-23-349-78-421-35-46-81-83-134-105l-2-1c-4-1-7-2-11-2h0z m381 974h-1c-10-2-259-53-193-451 64-388-179-481-189-485-3-1-5-3-5-6 0-4 3-7 6-7 1 0 2 1 3 1l0 0c50 22 92 55 124 97l0 1c53 68 108 192 74 401-64 386 172 435 182 436 4 1 6 4 6 7 0 3-3 6-6 6 0 0-1 0-1 0l0 0z m-604-769h-2c-10 1-17 9-17 19 0 1 0 2 0 3l0 0c0 3 38 289 454 315 378 24 373 253 373 263 0 0 0 0 0 1 0 10 8 18 18 19l0 0c1 0 1 0 1 0 11 0 19-8 19-18l0 0c0-3 10-277-408-303-160-10-283-63-356-152-31-36-53-80-62-128l0-2c-2-9-10-17-20-17 0 0 0 0 0 0h0z m0-13h-4c-16 2-28 16-28 32 0 2 0 3 0 5l0-1c0 3 40 301 466 327 367 23 361 240 360 249 0 1 0 1 0 2 0 17 14 31 31 32l0 0c1 0 1 0 2 0 8 0 15-3 21-8l0 0c6-6 10-14 11-22l0 0c0-3 11-290-421-317-156-10-276-60-347-147-29-34-49-76-59-122l0-1c-2-16-15-29-32-29h0z m827 620v0c-3 0-6-3-6-6 0 0 0 0 0-1v0c0-10 6-251-385-275-402-26-441-302-442-305 0 0 0 0 0 0 0-4 3-6 6-7l0 0h1c0 0 0 0 0 0 3 0 6 3 6 6l0 0c10 53 32 99 65 137l-1-1c76 93 202 147 365 157 403 26 397 287 397 289 0 2-1 4-2 5l0 0c-1 1-3 1-4 1h0z m-284-225c-5 0-9 1-12 4l0 0-62 45c-4 3-6 9-6 14 0 11 9 20 19 20 4 0 7-1 10-3l0 0 62-45c5-4 8-9 8-16 0-10-9-19-19-19h0z m0-13c0 0 0 0 0 0-8 0-14 3-19 6l0 0-62 46c-10 5-17 16-17 28 0 17 15 32 32 32 9 0 17-4 23-9l-1 0 62-45c9-6 14-16 14-26 0-18-15-32-32-32h0z m-62 84h-1c-4-1-6-3-6-6 0-3 1-4 3-6l0 0 62-45c1-1 2-1 4-1 2 0 4 1 5 3l0 0c1 1 1 2 1 3 0 3-1 4-3 6l0 0-62 45c-1 0-2 1-3 1 0 0 0 0 0 0h0z m156-29c0 0 0 0 0 0-4 0-8 2-11 4l0 0-138 102c-5 3-9 9-9 16 0 11 9 19 19 19 5 0 9-1 13-4l0 0 138-102c5-4 8-9 8-16 0-10-9-19-20-19 0 0 0 0 0 0h0z m0-13c0 0 0 0 0 0-7 0-14 3-19 7l0 0-138 102c-8 5-13 15-13 25 0 16 12 30 27 32l0 0c2 0 4 1 5 1 8 0 14-3 19-7l0 0 138-102c8-6 13-15 13-26 0-17-14-32-32-32 0 0 0 0 0 0h0z m-138 141h-1c-2 0-4-1-5-3l0 0c0-1-1-2-1-3 0-3 1-4 3-6l0 0 138-102c1-1 2-1 4-1 2 0 4 1 5 3l0 0c1 1 1 2 1 4 0 2-1 4-3 5l0 0-138 102c-1 1-2 1-3 1 0 0 0 0 0 0h0z m222-51c-5 0-9 1-12 3l0 0-183 133c-5 3-8 9-8 15 0 11 9 20 19 20 5 0 9-2 12-4l0 0 183-132c5-4 8-10 8-16 0-11-9-19-19-19 0 0 0 0 0 0h0z m0-13c0 0 0 0 0 0-8 0-14 2-19 6l0 0-183 132c-9 6-14 16-14 27 0 18 14 32 32 32 7 0 14-2 19-7l183-132c9-6 14-15 14-26 0-18-15-32-32-32 0 0 0 0-1 0h0z m-184 171c-3 0-6-3-6-7 0-2 1-4 3-5l183-132c1-1 2-2 4-2 3 0 6 3 6 7 0 2-1 4-3 5l0 0-183 133c-1 1-2 1-4 1l0 0z m-411-476c0-25-20-46-46-46s-46 21-46 46c0 25 21 46 46 46s46-21 46-46z m-46-59c-32 0-58 27-58 59s26 59 58 59c33 0 59-26 59-59v0c0-32-26-59-59-59v0z m0 92c-18 0-33-15-33-33s15-33 33-33c19 0 33 15 33 33v0c0 18-14 33-33 33v0z m393-85c0-25-20-46-46-46s-46 21-46 46c0 26 21 46 46 46s46-20 46-46z m-46-59c-32 0-59 27-59 59s27 59 59 59c33 0 59-26 59-59v0c0-32-26-59-59-59v0z m0 92c-18 0-33-14-33-33s15-33 33-33c18 0 33 15 33 33v0c0 19-15 33-33 33v0z m42 432c0-25-21-46-46-46s-46 21-46 46c0 26 21 46 46 46s46-20 46-46z m-46-59c-33 0-59 27-59 59s26 59 59 59c32 0 59-26 59-59v0c0-32-27-59-59-59v0z m0 92c-18 0-33-15-33-33s15-33 33-33c18 0 33 15 33 33v0c0 18-15 33-33 33 0 0 0 0 0 0v0z m424-155c0-25-21-46-46-46s-46 21-46 46c0 25 20 46 46 46s46-21 46-46z m-46-59c-33 0-59 26-59 59s26 59 59 59c32 0 58-27 58-59v0c0-33-26-59-58-59v0z m0 92c-19 0-33-15-33-33s14-33 33-33c18 0 33 15 33 33v0c0 18-15 33-33 33v0z m-458-346c-4 0-7 1-10 3l0 0-64 41c-6 4-9 10-9 16 0 11 9 19 19 19 4 0 8-1 10-2l0 0 65-41c5-4 9-10 9-17 0-10-9-19-20-19 0 0 0 0 0 0h0z m0-13c0 0 0 0 0 0-6 0-12 2-17 5l0 0-64 41c-9 6-15 16-15 27 0 18 15 32 32 32 7 0 12-2 17-5l0 1 64-42c9-5 15-15 15-27 0-17-14-32-32-32h0z m-64 80c-4 0-6-3-6-6 0-3 1-5 2-6l0 0 65-41c1-1 2-1 4-1 3 0 6 3 6 6 0 3-1 5-3 6l0 0-65 41c-1 1-2 1-3 1 0 0 0 0 0 0l0 0z m52-168c-4 0-7 2-10 4l0-1-144 94c-6 3-9 9-9 16 0 11 9 19 19 19 4 0 8-1 11-3l0 0 144-93c5-4 9-10 9-16 0-11-9-20-20-20 0 0 0 0 0 0h0z m0-12c-6 0-12 1-17 5l0 0-144 93c-9 6-15 16-15 27 0 6 2 12 5 18l0-1c6 9 16 15 27 15 7 0 13-2 18-5l0 0 144-93c9-6 15-16 15-27 0-18-15-32-33-32 0 0 0 0 0 0h0z m-144 131c-2 0-4-1-5-3l0 0c-1-1-1-2-1-3 0-3 1-5 3-6l0 0 144-93c1-1 2-1 3-1 2 0 4 1 6 3l0 0c0 1 1 2 1 3 0 3-1 5-3 6l0 0-144 93c-1 1-3 1-4 1h0z m112-228c0 0 0 0 0 0-3 0-7 1-10 3l0 0-191 120c-5 4-9 10-9 17 0 10 9 19 19 19 4 0 8-1 11-3l0 0 191-121c5-3 9-9 9-16 0-11-9-19-19-19 0 0 0 0-1 0h0z m0-13c0 0 0 0 0 0-6 0-12 1-17 5l0 0-191 120c-9 6-15 16-15 28 0 17 14 32 32 32 6 0 13-2 18-6l0 0 191-120c9-6 15-16 15-28 0-17-15-32-33-32h0z m-191 159h-1c-3 0-5-3-5-6 0-2 1-4 3-6l0 0 191-120c1-1 2-1 3-1 3 0 5 1 6 3l0 0c0 1 1 2 1 3 0 2-1 4-3 5l0 0-191 121c-1 1-2 1-3 1-1 0-1 0-1 0h0z" horiz-adv-x="891.6" />

<glyph glyph-name="corporate-group" unicode="&#xe914;" d="M407 559l99-26-58 69c15 21 24 48 24 76l0 0c0 95-105 172-236 172s-236-77-236-172 106-172 236-172c2 0 4 0 6 0 62 0 119 20 166 54l-1-1z m72-372c22-11 40-26 53-44l1 0c9 12 20 23 32 32l1 0v168h30v-152c15 6 32 10 51 10 0 0 0 0 0 0h0c0 0 0 0 0 0 47 0 88-23 114-58l0 0c7 8 13 15 21 22l0 0v178h30v-158c18 10 40 16 64 16 0 0 0 0 0 0h0c9 0 18-1 26-3l-1 0v138c0 81-66 147-148 147 0 0 0 0 0 0h-36l6-3c3-3 5-6 5-11 0-1 0-3-1-4l0 0-13-33 25-181-44-40-44 40 22 181-14 33c0 1 0 3 0 4 0 5 2 8 5 11l0 0 6 3h-43c0 0 0 0 0 0-82 0-148-66-148-147 0 0 0 0 0 0v0-149z m211 317c54 0 98 44 98 98s-44 98-98 98c-54 0-98-44-98-98v0c0-54 44-98 98-98v0z m232-528c29 17 49 48 49 84 0 52-43 95-95 95s-95-43-95-95c0-36 19-67 48-84l1 0c-27-17-50-38-68-62l-1-1c-18 25-41 46-67 63l-1 0c29 17 49 48 49 84 0 52-43 95-95 95s-95-43-95-95c0-36 20-67 49-84l0 0c-27-17-50-38-68-62l0-1c-19 25-42 46-68 63l-1 0c30 17 49 48 49 84 0 52-42 95-95 95s-95-43-95-95c0-36 20-67 49-84l0 0c-27-17-49-38-68-62l0-1c-19 25-42 46-68 63l-1 0c30 17 49 48 49 83 0 53-42 95-95 95s-95-42-95-95c0-35 20-66 49-83l0 0c-46-28-96-87-96-126h971c0 39-49 98-96 126z" horiz-adv-x="1017.6" />

<glyph glyph-name="female" unicode="&#xe915;" d="M665 747c0 1 0 1 0 2 0 24-19 43-42 44l0 0c-11-1-21-5-29-12l0 0c-9-7-134-108-215-175h-88c-82 67-211 171-220 178-8 7-18 12-29 12l0 0c-24-1-42-20-42-43 0-1 0-2 0-3l0 1c0 0 0-1 0-1 0-11 4-22 11-30l0 0c3-4 7-7 11-9l0 0 209-176v-8l-108-392h117l-9-227c0-31 16-58 43-58s47 26 47 58c0 2 0 3 0 4l-9 223h49l-10-223c0-1 0-3 0-4 0-31 20-58 47-58s43 26 43 58l-9 227h117l-110 400 204 172c4 3 8 6 11 9l0 1h0c7 8 11 18 11 30v0z m-330-97c-21 1-39 11-51 26l0 1h-46l24 97c9 44 40 76 76 76s66-32 74-75l21-98h-45c-13-16-32-26-53-27l0 0z" horiz-adv-x="665" />

<glyph glyph-name="male" unicode="&#xe916;" d="M793 783c0 0 0 0 0 0 0 26-21 46-46 46h0c-12 0-23-5-32-12l0 0c-10-7-181-133-272-201h-97c-90 68-258 192-268 200-9 7-20 11-32 12l0 0c0 0 0 0 0 0-26 0-47-21-47-46 0-12 5-23 13-32l0 0 0 0c4-4 8-7 12-9l0 0 257-198v-637c0 0 0-1 0-2s0-1 0-1l0 0c0-1 0-2 0-2 0-29 23-53 52-53s53 24 53 53c0 0 0 1 0 2l0 0v295h18v-296c0 0 0-1 0-2 0-29 23-52 52-52s52 23 52 52c0 1 0 2 0 2l0 0c0 1 0 1 0 2s0 1 0 2l0 0v637l261 199c4 3 8 6 12 10l0 0h0c7 8 12 18 12 30v0z m-404-132v0c2 0 3 0 5 0h1c2 0 4 0 6 0v0c52 4 93 47 93 99s-41 96-93 99l0 0c-2 0-4 1-6 1h-1c-1 0-3-1-5-1v0c-53-3-94-46-94-99s41-95 93-99l1 0z" horiz-adv-x="793" />

<glyph glyph-name="elderly-female" unicode="&#xe917;" d="M246 576c0 0 0 0 1 0 54 0 97 44 98 98v0c0 34-18 64-45 81l0 1-2 1-2 1c0 0-1 0-1 1l0 0-2 1-3 1-2 1-3 1c0 0-1 1-1 1l0 0c-1 0-2 1-3 1l0 0c0 0-1 0-2 1l1 0c-1 0-3 0-4 1l0 0c-1 0-1 0-1 0s0 0-1 0l0 0-3 1h-1l-3 1h-2l-4 0c0 0 0 0 0 0s0 0 0 0l0 0h-30s0 0 0 0-2 0-4 0h-1l-3-1h-2l-3-1h-1c-1 0-2-1-4-1 0-1-1-1-2-1l0 0c0 0-1-1-2-1l0 0c0 0-1-1-2-1l0 0-2-1c-1 0-1 0-2-1l0 0c-1 0-2-1-3-1l0 0-2-1-2-1-1-1-2-1-2-2c-26-17-43-47-43-80v0c0-54 44-97 98-97 0 0 0 0 1 0h0z m0 224c0 0 0 0 0 0 22 0 42-6 59-17l0 0c0 3 0 6 0 9l0 0c-1 31-27 57-59 57s-58-26-59-57l0 0c0-3 0-6 0-9l0 0c17 11 37 17 59 17 0 0 0 0 0 0h0z m239-564c9 12 8 29 3 49-6 24-33 102-60 180s-70 89-145 89h-75c-75 0-118-11-145-89s-53-156-59-180c-8-27-8-51 18-58s47 8 58 39c0 0 48 151 48 151h20l-101-329h109l-8-190c0-26 14-48 40-48 24 1 44 21 44 46 0 1 0 2-1 3l0-1c0 1 0 3 0 3l-8 188h46l-9-188c0 0 0-2 0-3 0 0 0-1 0-2 0-25 20-45 44-46l0 0c25 0 40 22 40 48l-8 190h89v-234h21v325c0 21 16 37 37 37s37-16 37-37v0h21c0 31-25 57-56 58l0 0z" horiz-adv-x="541" />

<glyph glyph-name="elderly-male" unicode="&#xe918;" d="M516 271c0 0 0 0 0 0-13 0-25-3-35-10l0 0c0 1 0 2 0 4s0 2 0 3l0 0v219c-1 83-64 151-144 162l-1 0c-24-26-58-43-96-43s-71 17-95 43l0 0c-83-12-146-80-146-162v-219c2-24 22-43 46-43s44 19 45 43l0 0v227h20v-590c2-30 27-54 58-54s55 24 57 54l0 0c0 1 0 3 0 4v261h33v-265c2-30 27-54 58-54s55 24 57 54l0 0c0 0 0 1 0 2s0 1 0 2l0 0v586h18v-227c1-24 21-43 45-43 0 0 0 0 1 0l0 0c0 0 0 0 0 0 6 0 13 1 18 4l0-1c-2-5-3-12-3-19 0 0 0 0 0 0v0-353h23v353c2 21 20 38 41 38s40-17 42-38l0 0h23c0 34-29 62-63 62-1 0-1 0-2 0l0 0z m-347 394v0c1-2 2-3 3-3l1-1c1-1 2-2 4-2s0 0 0 0c1-1 2-2 4-3l0 0c1-1 2-2 4-2l0 0s0 0 0 0l4-3h1l4-1h1c1-1 2-2 3-2l1 0c0 0 0 0 0 0s1 0 1 0l0 0c1-1 2-1 3-1l0 0c1-1 1-1 2-1l0 0c1 0 2-1 3-1l0 0 2-1 3 0c1-1 2-1 3-1l-1 0c1 0 3 0 4-1h2c1 0 2 0 3 0h3c0 0 1 0 1 0s1 0 1 0l0 0c1 0 1 0 2 0s1 0 2 0l0 0h15c1 0 1 0 2 0s1 0 2 0l-1 0c1 0 1 0 2 0s1 0 1 0l0 0h3c1 0 2 0 3 0 0 1 1 1 1 1s1 0 1-1l0 0c1 1 2 1 3 1l0 0c1 0 1 0 1 0s1 0 1 0l0 0 4 1h1l4 1s1 0 2 1c1 0 2 1 3 1l0 0c0 0 1 0 1 0s0 0 0 0l0 0 4 2h1l4 2h1l4 2s0 0 0 0c1 0 3 1 4 2l0 0c1 1 3 2 4 3l4 3 4 3c23 19 38 47 38 79v1c0 60-49 110-110 110s-110-50-110-110v0c0-33 14-61 37-80l1 0z" horiz-adv-x="581.1" />

<glyph glyph-name="family1" unicode="&#xe919;" d="M1341 397c74 0 134-50 133-112l-3-149c-2-17-16-30-33-30-1 0-2 0-3 0l0 0c-20 0-36 13-35 30l2 155h-18l-3-155-4-246c0-24-21-40-46-40-1-1-2-1-3-1-21 0-38 17-38 38 0 0 0 0 0 0v0l4 212h-26l-4-209c0-24-21-40-46-40-1-1-2-1-3-1-21 0-37 17-37 38 0 0 0 0 0 0v0l4 248 3 178-156-42c-3-1-8-1-12-2l0 0c-20 0-39 15-48 42l-76 167h-20l81-310h-95l4-264c0-30-16-54-42-54s-44 24-44 54l14 264h-52l5-264c0-30-20-54-46-54s-44 24-44 54l13 264h-95l92 310h-26l-87-181c-12-22-26-31-40-31 0 0-1 0-2 0s-2 0-3 0l1 0c-1 0-2 0-3 0s-2 0-3 0l0 0c-14 0-29 9-43 30l-101 183h-17l-5-310-4-262c0 0 0-1 0-2 0-30-23-54-52-55l-1 0c-28 1-50 24-50 52 0 1 0 1 0 2l0 0 5 300h-30l-5-297c0 0 0-1 0-2 0-30-23-54-52-55l0 0c-29 0-47 24-47 54l4 264 6 310h-23l-4-219c0 0 0 0 0-1 0-23-18-42-41-42l-1 0c-22 0-40 18-40 41 0 0 0 0 0 0v0l4 213c1 88 71 160 157 160h118c85 0 123-9 161-94 24-53 50-107 69-146 19 40 44 94 67 146 37 86 89 94 166 94h72c76 0 100-7 147-98 33-75 65-141 82-178 57 19 141 43 187 43-21 18-33 44-33 74 0 0 0 1 0 2l0-1c0 51 40 92 90 93l0 0c49-1 88-41 88-90 0-1 0-2 0-3l0 0c0-30-15-58-38-75l0 0z m-1111 250c-54 1-96 44-96 98 0 1 0 2 0 4l0 0c0 55 44 100 99 101l0 0c53-1 96-44 96-98 0-1 0-2 0-4l0 1c0-56-44-101-99-102l0 0z m539 0c-23 0-44 11-58 27l0 0h-51l27 99c10 44 45 77 85 77s73-32 82-76l24-100h-51c-14-16-35-26-58-27l0 0z" horiz-adv-x="1473.6" />

<glyph glyph-name="family2" unicode="&#xe91a;" d="M1006 352c57 18 140 42 186 42-21 18-33 44-33 73 0 1 0 2 0 2l0 0c0 50 40 91 90 92l0 0c49-1 88-40 88-89 0-1 0-2 0-3l0 0c-1-30-16-58-39-74l0-1h5c74 0 133-49 132-111l-2-149c-2-16-16-29-33-29-1 0-2 0-3 0l0 0c-20 0-36 13-35 29l2 154h-18l-3-153-4-245c0-23-21-40-46-40-1 0-2 0-3 0-20 0-37 17-37 37 0 0 0 0 0 1v0l4 211h-27l-3-209c0-23-21-40-46-40-1 0-2 0-3 0-20 0-37 17-37 37 0 0 0 0 0 1v0l4 247 3 176-155-41c-4-1-8-2-12-2l0 0z m-777 296c-53 1-96 44-96 97 0 2 0 3 0 4l0 0c0 55 44 100 99 101l0 0c53-1 96-44 96-97 0-2 0-3 0-4l0 0c0-55-45-100-99-101l0 0z m482 0c-53 1-96 44-96 97 0 2 0 3 1 4l0 0c0 55 44 100 98 101l0 0c54-1 96-44 96-97 0-2 0-3 0-4l0 0c0-55-44-100-99-101l0 0z m-163-348c-12-22-26-31-39-31-1 0-2 0-3 0s-1 0-2 0l0 0c-1 0-2 0-3 0s-2 0-3 0l1 0c-15 0 1-50-12-28l-132 239h-17l-5-308-4-260c0-1 0-2 0-3 0-29-23-53-52-54l0 0c-28 1-51 24-51 52 0 0 0 1 0 1l0 0 6 299h-30l-5-295c0-1 0-2 0-3 0-29-23-53-52-54l0 0c-28 0-47 24-46 53l4 263 5 309h-23l-3-218c0 0 0-1 0-1 0-23-19-42-42-43l0 0c-22 1-40 19-40 41 0 1 0 1 0 1v0l4 212c1 88 71 159 156 159h117c85 0 123-9 161-94 24-53 50-106 69-145 18 40 43 93 66 145z m482 0c-12-22-26-31-39-31-1 0-2 0-2 0s-2 0-3 0l0 0c-1 0-2 0-3 0s-1 0-2 0l0 0c-15 0-30 9-43 30l-101 182h-16l-5-309-5-260c0-1 0-2 0-2 0-30-23-53-51-55l-1 0c-28 1-50 24-50 52 0 1 0 1 0 2l0 0 5 299h-30l-5-296c0-1 0-2 0-3 0-29-23-53-52-54l0 0c-28 0-47 24-46 54l4 263 5 308h-22l-4-218c0 0 0 0 0-1 0-23-18-42-41-42l0 0c-23 0-40 19-40 41 0 0 0 0 0 0v0l3 212c2 88 71 159 156 159h118c84 0 122-8 160-93 24-53 50-106 69-146z" horiz-adv-x="1435.5" />

<glyph glyph-name="patient" unicode="&#xe91b;" d="M792 302v-145h167c1 0 1 0 2 0 23 0 42-19 42-42s-19-42-42-42c-1 0-1 0-2 0l0 0h-209c-23 0-42 19-42 42 0 0 0 0 0 0v0 187c0 23 19 42 42 42s42-19 42-42v0z m-714-130c1 95 78 172 173 172 0 0 0 0 0 0h423v-269h-596v97z m833 24c-55 0-100 44-100 99s45 100 100 100c55 0 99-45 99-100 0 0 0 0 0 0v0c0-55-44-99-99-99v0z m146-148v458h74v-656h-74v125h-983v-125h-74v198z m57 748v-272h-43v272h-203c-6 0-11 5-11 11s5 11 11 11h203v17c0 8 6 15 14 15v0h15c8 0 14-7 14-15v-17h15c6 0 11-5 11-11s-5-11-11-11v0z m-209-200h-19c0 0 0 0 0 0-9 0-17 7-17 17v157c0 9 8 16 17 16h106c10 0 17-7 17-16v0-157c0 0 0 0 0 0 0-9-7-17-16-17-1 0-1 0-1 0h-14v-18h-14v18h-47c-4-77-49-106-89-131-38-24-70-44-70-101h-12c0 63 39 87 76 111 40 24 80 50 84 121z m87 15c1 0 2 1 2 2v0 157c0 0 0 0 0 0 0 1-1 2-2 2h-106c-1 0-2-1-2-2 0 0 0 0 0 0v0-7h40c1 0 2-1 2-2s-1-3-2-3l0 0h-40v-12h15c1 0 2-1 2-2s-1-3-2-3l0 0h-15v-12h25c1 0 2-1 2-3s-1-2-2-2h-25v-12h15c1-1 2-2 2-3 0 0 0 0 0 0v0c0 0 0 0 0 0 0-2-1-3-2-3h-15v-12h27c2 0 3-1 3-3 0 0 0 0 0 0v0 0c0 0 0 0 0 0 0-2-1-3-3-3h-27v-12h15c1 0 2-1 2-2 0-1 0-1 0-1v0c0 0 0 0 0 0 0-1-1-2-2-2h-15v-12h25c1 0 2-1 2-3 0 0 0 0 0 0v0c0 0 0 0 0 0 0-1-1-2-2-3h-25v-12h15c1 0 2-1 2-2 0 0 0 0 0 0v0c0 0 0 0 0 0 0-2-1-3-2-3h-15v-12h40c1 0 2-1 2-3 0 0 0 0 0 0v0c0 0 0 0 0 0 0-1-1-2-2-2h-40v-6c0-1 1-2 2-2v0z" horiz-adv-x="1140.6" />

<glyph glyph-name="heartbeat-1" unicode="&#xe91c;" d="M967 749c-62 75-131 101-196 101-141 0-258-117-264-124-5 6-92 120-224 120-62 0-132-26-206-103-126-130-78-281 7-409h120l79 251c5 15 18 26 34 26 0 0 1 0 1 0h0c16-1 29-12 33-27l0 0 85-319 65 204c5 15 18 25 34 25 15 0 28-10 34-23l0 0 42-115h350c76 124 110 268 6 393z m-414-441l-16 40-70-221c-4-14-18-24-34-24 0 0 0 0 0 0h-1c-16 0-29 11-33 26l0 0-85 318-50-160c-5-14-19-24-34-24h-94c61-76 125-138 157-173 89-101 204-233 210-240 63 92 135 171 216 238l2 2c71 58 133 122 188 192l2 2h-325c0 0 0 0 0 0-15 0-28 10-33 24l0 0z" horiz-adv-x="1032.2" />

<glyph glyph-name="lungs" unicode="&#xe91d;" d="M1090 55c-6 80-22 155-48 226l2-6c-19 52-54 68-54 68s20 104-82 250-182 181-227 154c-40-24-17-108-15-197l-74 62v238h-90l-2-238-75-52c3 85 23 164-15 187-46 27-125-9-227-154s-82-250-82-250-36-16-54-68c-24-65-40-140-46-218l0-2c-7-93 12-184 66-203s145 67 209 105 156 75 211 186c46 94-24 220-52 319l112 88 109-85c-26-99-99-227-52-322 54-111 147-147 211-186s154-122 208-105 73 110 66 203z" horiz-adv-x="1090.8" />

<glyph glyph-name="glyph" unicode="&#xe923;" d="M820 145l-101 160c-71 113-132 282-132 370v175h-97v-175c0-107 64-292 146-423l102-160c0 0 0-1 1-1h-615c0 0 1 1 1 1l0 0 102 160c82 131 146 316 146 423v175h-98v-175c0-88-60-257-131-370l-101-160c-48-74-56-147-24-205s98-90 186-90h453c88 0 154 32 186 90s23 131-24 205z" horiz-adv-x="863.3" />

<glyph glyph-name="microscope" unicode="&#xe924;" d="M196 655h87v117h11v78h-109v-78h11v-117z m-14-252v-125h111v125h-111z m182-230h-364v-91h364v91z m355-193c5 25 8 54 8 83v0c0 0 0 0 0 1 0 229-174 418-396 443l-2 0v161h-182v-293h182v29c130-20 235-109 277-229l0-2h-195v-193h-409v-130h765v130z" horiz-adv-x="766.6" />

<glyph glyph-name="stethoscope-1" unicode="&#xe925;" d="M96 759c10-16 28-26 47-26 0 0 0 0 0 0h0c1 0 1 0 1 0 32 0 59 26 59 59s-27 58-59 58c-31 0-57-25-58-56l0 0c-49-26-68-85-68-156h35c0 53 10 99 43 120z m312-26c20 0 38 11 48 27l0 1c34-22 43-68 43-122 0 0 36 0 36 0 0 72-20 132-70 157-3 30-27 53-57 53-32 0-58-26-58-58 0-32 26-58 58-58h0z m323-340c-89-1-161-74-161-163 0-84 63-152 144-162l1 0c-26-93-109-160-208-160-118 0-214 96-214 215 0 1 0 2 0 3l0 0v118c145 10 259 131 259 278 0 0 0 1 0 1v0c0 1 0 85 0 86v4h-64v-90c0-1 0-3 0-4 0-117-95-212-212-212s-211 95-211 212c0 1 0 3 0 4l0 0c0 1 0 85 0 86v4h-65v-4c0-1 0-85 0-86 0 0 0-1 0-1 0-138 101-253 233-275l2 0v-121c0-1 0-2 0-4 0-150 122-272 272-272 133 0 244 95 268 221l0 2c68 21 117 83 117 157 0 89-72 161-161 163l0 0z m49-264l-4-2h0c-2 0-3-1-4-1l0 0h-1l-3-2h-1l-4-1h-1l-5-1h-1l-5-1c0 0 0 0-1 0s0 0-1 0l0 0c-1 0-3 0-4-1l0 0c0 0 0 0-1 0s0 0-1 0l0 0h-4c0 0 0 0-1 0s0 0-1 0l0 0h-11c-1 0-2 0-4 0-58 5-103 53-103 112 0 62 50 112 112 112s112-50 112-112c0-44-25-82-62-100l0 0z" horiz-adv-x="891.6" />

<glyph glyph-name="clock" unicode="&#xe926;" d="M548 408l-121-104c-6 2-13 3-20 3h0c-35 0-63-28-63-63s28-62 63-62c34 0 62 28 62 62 0 1 0 1 0 1v0c0 3 0 6 0 9l0 0 122 105-43 49z m137 125c34 9 59 40 59 76 0 43-35 78-78 78-43 0-78-35-78-78v0c0-1 0-3 0-4-31 17-66 30-103 38l-3 0c26 22 43 54 43 91 0 64-52 117-117 117s-117-53-117-117c0-35 15-67 40-88l0 0c-42-8-80-21-114-39l2 1v1c0 43-35 78-78 78-43 0-78-35-78-78 0-35 23-64 54-74l1 0c-74-73-119-174-119-285 0-222 180-401 401-401s401 179 401 401c0 111-44 211-117 283l0 0z m-277 264c36 0 64-28 64-64 0-35-28-63-64-63s-63 28-63 63c0 0 0 1 0 1v0c0 35 28 63 63 63h0z m-7-855c-171 0-309 138-309 309 0 171 138 309 309 309 171 0 309-138 309-309v0c0 0 0 0 0 0 0-171-138-309-309-309 0 0 0 0 0 0h0z" horiz-adv-x="801.8" />

<glyph glyph-name="user-md" unicode="&#xf0f0;" d="M214 100q0-14-10-25t-25-11-25 11-11 25 11 25 25 11 25-11 10-25z m572-34q0-68-41-106t-108-39h-488q-67 0-108 39t-41 106q0 38 3 73t14 77 26 74 45 58 67 33q-12-29-12-67v-113q-32-11-52-39t-20-62q0-45 32-76t76-31 76 31 31 76q0 34-20 62t-52 39v113q0 35 14 52 74-58 165-58t165 58q13-17 13-52v-35q-59 0-101-42t-41-101v-50q-18-16-18-40 0-22 15-37t38-16 38 16 16 37q0 24-18 40v50q0 29 21 50t50 21 51-21 21-50v-50q-18-16-18-40 0-22 16-37t38-16 38 16 15 37q0 24-18 40v50q0 38-19 71t-52 52q0 6 0 24t0 27-1 23-4 26-7 22q38-8 67-33t45-58 26-74 14-77 3-73z m-179 498q0-88-63-151t-151-63-152 63-62 151 62 152 152 63 151-63 63-152z" horiz-adv-x="785.7" />

<glyph glyph-name="stethoscope" unicode="&#xf0f1;" d="M714 457q0 15-10 25t-25 11-25-11-11-25 11-25 25-11 25 11 10 25z m72 0q0-34-20-62t-52-39v-220q0-89-73-152t-177-63-176 63-74 152v73q-91 12-153 72t-61 140v286q0 15 11 25t25 11q3 0 9-1 9 17 26 27t36 10q30 0 51-21t21-51-21-50-51-21q-18 0-36 10v-225q0-59 53-101t126-41 126 41 53 101v225q-18-10-36-10-30 0-51 21t-21 50 21 51 51 21q19 0 36-10t26-27q6 1 9 1 15 0 25-11t11-25v-286q0-80-61-140t-153-72v-73q0-59 52-101t126-42 126 42 53 101v220q-32 12-52 39t-20 62q0 45 32 76t76 31 76-31 31-76z" horiz-adv-x="785.7" />

<glyph glyph-name="building" unicode="&#xf0f7;" d="M214 118v-36q0-7-5-12t-13-6h-35q-7 0-13 6t-5 12v36q0 7 5 12t13 6h35q8 0 13-6t5-12z m0 143v-36q0-7-5-13t-13-5h-35q-7 0-13 5t-5 13v36q0 7 5 12t13 6h35q8 0 13-6t5-12z m143 0v-36q0-7-5-13t-13-5h-35q-8 0-13 5t-5 13v36q0 7 5 12t13 6h35q8 0 13-6t5-12z m-143 143v-36q0-7-5-13t-13-5h-35q-7 0-13 5t-5 13v36q0 7 5 12t13 5h35q8 0 13-5t5-12z m429-286v-36q0-7-5-12t-13-6h-36q-7 0-12 6t-6 12v36q0 7 6 12t12 6h36q7 0 13-6t5-12z m-143 143v-36q0-7-5-13t-13-5h-36q-7 0-12 5t-5 13v36q0 7 5 12t12 6h36q7 0 13-6t5-12z m-143 143v-36q0-7-5-13t-13-5h-35q-8 0-13 5t-5 13v36q0 7 5 12t13 5h35q8 0 13-5t5-12z m-143 142v-35q0-7-5-13t-13-5h-35q-7 0-13 5t-5 13v35q0 8 5 13t13 5h35q8 0 13-5t5-13z m429-285v-36q0-7-5-13t-13-5h-36q-7 0-12 5t-6 13v36q0 7 6 12t12 6h36q7 0 13-6t5-12z m-143 143v-36q0-7-5-13t-13-5h-36q-7 0-12 5t-5 13v36q0 7 5 12t12 5h36q7 0 13-5t5-12z m-143 142v-35q0-7-5-13t-13-5h-35q-8 0-13 5t-5 13v35q0 8 5 13t13 5h35q8 0 13-5t5-13z m-143 143v-35q0-8-5-13t-13-5h-35q-7 0-13 5t-5 13v35q0 8 5 13t13 5h35q8 0 13-5t5-13z m429-285v-36q0-7-5-13t-13-5h-36q-7 0-12 5t-6 13v36q0 7 6 12t12 5h36q7 0 13-5t5-12z m-143 142v-35q0-7-5-13t-13-5h-36q-7 0-12 5t-5 13v35q0 8 5 13t12 5h36q7 0 13-5t5-13z m-143 143v-35q0-8-5-13t-13-5h-35q-8 0-13 5t-5 13v35q0 8 5 13t13 5h35q8 0 13-5t5-13z m286-143v-35q0-7-5-13t-13-5h-36q-7 0-12 5t-6 13v35q0 8 6 13t12 5h36q7 0 13-5t5-13z m-143 143v-35q0-8-5-13t-13-5h-36q-7 0-12 5t-5 13v35q0 8 5 13t12 5h36q7 0 13-5t5-13z m143 0v-35q0-8-5-13t-13-5h-36q-7 0-12 5t-6 13v35q0 8 6 13t12 5h36q7 0 13-5t5-13z m-143-768h214v858h-643v-858h215v125q0 8 5 13t13 5h178q7 0 13-5t5-13v-125z m286 893v-928q0-15-11-25t-25-11h-714q-15 0-25 11t-11 25v928q0 15 11 25t25 11h714q15 0 25-11t11-25z" horiz-adv-x="785.7" />

<glyph glyph-name="hospital" unicode="&#xf0f8;" d="M214 118v-36q0-7-5-12t-13-6h-35q-7 0-13 6t-5 12v36q0 7 5 12t13 6h35q8 0 13-6t5-12z m0 143v-36q0-7-5-13t-13-5h-35q-7 0-13 5t-5 13v36q0 7 5 12t13 6h35q8 0 13-6t5-12z m143 0v-36q0-7-5-13t-13-5h-35q-8 0-13 5t-5 13v36q0 7 5 12t13 6h35q8 0 13-6t5-12z m-143 143v-36q0-7-5-13t-13-5h-35q-7 0-13 5t-5 13v36q0 7 5 12t13 5h35q8 0 13-5t5-12z m429-286v-36q0-7-5-12t-13-6h-36q-7 0-12 6t-6 12v36q0 7 6 12t12 6h36q7 0 13-6t5-12z m-143 143v-36q0-7-5-13t-13-5h-36q-7 0-12 5t-5 13v36q0 7 5 12t12 6h36q7 0 13-6t5-12z m-143 143v-36q0-7-5-13t-13-5h-35q-8 0-13 5t-5 13v36q0 7 5 12t13 5h35q8 0 13-5t5-12z m286-143v-36q0-7-5-13t-13-5h-36q-7 0-12 5t-6 13v36q0 7 6 12t12 6h36q7 0 13-6t5-12z m-143 143v-36q0-7-5-13t-13-5h-36q-7 0-12 5t-5 13v36q0 7 5 12t12 5h36q7 0 13-5t5-12z m143 0v-36q0-7-5-13t-13-5h-36q-7 0-12 5t-6 13v36q0 7 6 12t12 5h36q7 0 13-5t5-12z m-143-483h214v643h-143v-18q0-22-15-37t-38-16h-250q-22 0-38 16t-16 37v18h-143v-643h215v125q0 8 5 13t13 5h178q7 0 13-5t5-13v-125z m0 661v179q0 7-5 12t-13 6h-36q-7 0-12-6t-5-12v-54h-72v54q0 7-5 12t-13 6h-35q-8 0-13-6t-5-12v-179q0-7 5-12t13-6h35q8 0 13 6t5 12v54h72v-54q0-7 5-12t12-6h36q7 0 13 6t5 12z m286 18v-714q0-15-11-25t-25-11h-714q-15 0-25 11t-11 25v714q0 15 11 25t25 11h178v160q0 23 16 38t38 16h250q22 0 38-16t15-38v-160h179q15 0 25-11t11-25z" horiz-adv-x="785.7" />

<glyph glyph-name="ambulance" unicode="&#xf0f9;" d="M357 64q0 30-21 51t-50 21-51-21-21-51 21-50 51-21 50 21 21 50z m-214 286h214v143h-88q-8-1-12-5l-109-109q-4-7-5-12v-17z m714-286q0 30-21 51t-50 21-51-21-21-51 21-50 51-21 50 21 21 50z m72 375v107q0 8-5 13t-13 5h-125v125q0 8-5 13t-13 5h-107q-8 0-13-5t-5-13v-125h-125q-8 0-13-5t-5-13v-107q0-7 5-12t13-6h125v-125q0-7 5-12t13-5h107q8 0 13 5t5 12v125h125q8 0 13 6t5 12z m142 304v-643q0-14-10-25t-25-11h-107q0-59-42-101t-101-42-101 42-42 101h-214q0-59-42-101t-101-42-101 42-42 101h-72q-14 0-25 11t-10 25 10 25 25 11v232q0 14 8 32t18 29l110 110q11 11 29 18t32 7h89v179q0 14 11 25t25 11h643q14 0 25-11t10-25z" horiz-adv-x="1071.4" />

<glyph glyph-name="medkit" unicode="&#xf0fa;" d="M714 225v107q0 8-5 13t-13 5h-125v125q0 8-5 13t-12 5h-108q-7 0-12-5t-5-13v-125h-125q-8 0-13-5t-5-13v-107q0-8 5-13t13-5h125v-125q0-8 5-13t12-5h108q7 0 12 5t5 13v125h125q8 0 13 5t5 13z m-357 411h286v71h-286v-71z m-214 0v-715h-18q-51 0-88 37t-37 88v465q0 51 37 88t88 37h18z m661 0v-715h-608v715h90v89q0 22 15 38t38 16h322q22 0 38-16t15-38v-89h90z m196-125v-465q0-51-37-88t-88-37h-18v715h18q51 0 88-37t37-88z" horiz-adv-x="1000" />

<glyph glyph-name="h-sigh" unicode="&#xf0fd;" d="M714 100v500q0 15-10 25t-25 11h-72q-14 0-25-11t-11-25v-179h-285v179q0 15-11 25t-25 11h-71q-15 0-25-11t-11-25v-500q0-14 11-25t25-11h71q15 0 25 11t11 25v179h285v-179q0-14 11-25t25-11h72q14 0 25 11t10 25z m143 518v-536q0-66-47-113t-114-48h-535q-67 0-114 48t-47 113v536q0 66 47 113t114 48h535q67 0 114-48t47-113z" horiz-adv-x="857.1" />

<glyph glyph-name="bank" unicode="&#xf19c;" d="M536 850l535-214v-72h-71q0-14-11-25t-27-10h-852q-16 0-27 10t-12 25h-71v72z m-393-357h143v-429h71v429h143v-429h71v429h143v-429h72v429h143v-429h33q15 0 27-10t11-25v-36h-929v36q0 14 12 25t27 10h33v429z m890-536q16 0 27-11t11-25v-71h-1071v71q0 15 11 25t28 11h994z" horiz-adv-x="1142.9" />

<glyph glyph-name="graduation-cap" unicode="&#xf19d;" d="M990 384l10-177q2-38-46-71t-131-52-180-20-180 20-131 52-46 71l10 177 320-101q12-4 27-4t27 4z m296 180q0-12-13-17l-625-196q-2-1-5-1t-6 1l-364 115q-24-19-39-63t-19-99q35-20 35-61 0-39-32-60l32-242q1-7-4-13-5-7-14-7h-107q-8 0-13 7-6 6-5 13l33 242q-33 21-33 60 0 41 36 62 7 115 55 184l-186 58q-12 5-12 17t12 18l625 196q3 1 6 1t5-1l625-196q13-5 13-18z" horiz-adv-x="1285.7" />

<glyph glyph-name="building-filled" unicode="&#xf1ad;" d="M750 850q15 0 25-11t11-25v-928q0-15-11-25t-25-11h-714q-15 0-25 11t-11 25v928q0 15 11 25t25 11h714z m-464-161v-35q0-8 5-13t13-5h35q8 0 13 5t5 13v35q0 8-5 13t-13 5h-35q-8 0-13-5t-5-13z m0-143v-35q0-8 5-13t13-5h35q8 0 13 5t5 13v35q0 8-5 13t-13 5h-35q-8 0-13-5t-5-13z m0-142v-36q0-8 5-13t13-5h35q8 0 13 5t5 13v36q0 7-5 12t-13 5h-35q-8 0-13-5t-5-12z m0-143v-36q0-8 5-13t13-5h35q8 0 13 5t5 13v36q0 8-5 13t-13 5h-35q-8 0-13-5t-5-13z m-72-179v36q0 8-5 13t-13 5h-35q-8 0-13-5t-5-13v-36q0-8 5-13t13-5h35q8 0 13 5t5 13z m0 143v36q0 8-5 13t-13 5h-35q-8 0-13-5t-5-13v-36q0-8 5-13t13-5h35q8 0 13 5t5 13z m0 143v36q0 7-5 12t-13 5h-35q-8 0-13-5t-5-12v-36q0-8 5-13t13-5h35q8 0 13 5t5 13z m0 143v35q0 8-5 13t-13 5h-35q-8 0-13-5t-5-13v-35q0-8 5-13t13-5h35q8 0 13 5t5 13z m0 143v35q0 8-5 13t-13 5h-35q-8 0-13-5t-5-13v-35q0-8 5-13t13-5h35q8 0 13 5t5 13z m286-715v107q0 8-5 13t-13 5h-178q-8 0-13-5t-5-13v-107q0-8 5-13t13-5h178q8 0 13 5t5 13z m0 286v36q0 8-5 13t-13 5h-36q-7 0-12-5t-5-13v-36q0-8 5-13t12-5h36q8 0 13 5t5 13z m0 143v36q0 7-5 12t-13 5h-36q-7 0-12-5t-5-12v-36q0-8 5-13t12-5h36q8 0 13 5t5 13z m0 143v35q0 8-5 13t-13 5h-36q-7 0-12-5t-5-13v-35q0-8 5-13t12-5h36q8 0 13 5t5 13z m0 143v35q0 8-5 13t-13 5h-36q-7 0-12-5t-5-13v-35q0-8 5-13t12-5h36q8 0 13 5t5 13z m143-572v36q0 8-5 13t-13 5h-36q-7 0-12-5t-6-13v-36q0-8 6-13t12-5h36q8 0 13 5t5 13z m0 143v36q0 8-5 13t-13 5h-36q-7 0-12-5t-6-13v-36q0-8 6-13t12-5h36q8 0 13 5t5 13z m0 143v36q0 7-5 12t-13 5h-36q-7 0-12-5t-6-12v-36q0-8 6-13t12-5h36q8 0 13 5t5 13z m0 143v35q0 8-5 13t-13 5h-36q-7 0-12-5t-6-13v-35q0-8 6-13t12-5h36q8 0 13 5t5 13z m0 143v35q0 8-5 13t-13 5h-36q-7 0-12-5t-6-13v-35q0-8 6-13t12-5h36q8 0 13 5t5 13z" horiz-adv-x="857.1" />

<glyph glyph-name="heartbeat" unicode="&#xf21e;" d="M714 279h171q-3-4-6-6t-5-4l-2-3-347-335q-10-10-25-10t-25 10l-348 336q-3 2-11 12h205q13 0 23 7t12 19l39 157 106-372q4-11 13-18t22-8q11 0 21 8t13 18l81 271 32-63q10-19 31-19z m286 238q0-80-57-167h-206l-62 123q-5 10-15 15t-20 5q-25-3-31-26l-72-240-109 383q-4 11-14 19t-22 7-21-8-13-19l-64-259h-236q-58 87-58 167 0 123 71 192t196 70q34 0 70-12t67-33 54-38 42-38q20 20 42 38t54 38 67 33 70 12q125 0 196-70t71-192z" horiz-adv-x="1000" />

<glyph glyph-name="bed" unicode="&#xf236;" d="M143 279h964q15 0 25-11t11-25v-250h-143v143h-857v-143h-143v678q0 15 11 26t25 10h71q15 0 25-10t11-26v-392z m321 178q0 59-42 101t-101 42-101-42-41-101 41-101 101-42 101 42 42 101z m679-143v36q0 89-63 152t-151 62h-393q-15 0-25-10t-11-25v-215h643z" horiz-adv-x="1142.9" />

<glyph glyph-name="wheelchair-alt" unicode="&#xf29b;" d="M803 396q18-19 16-45l-25-308q-2-23-19-39t-40-16q-3 0-5 1-25 2-40 20t-15 44l20 239-80-4q31-64 31-134 0-121-83-208l-76 76q50 57 50 132 0 81-57 138t-138 57q-75 0-132-51l-76 77q67 64 158 79l148 167-83 49-101-90q-19-17-43-15t-41 19-15 43 19 41l134 119q14 13 33 15t36-8l272-158q20-12 27-38 10-38-14-65l-115-130 207 11q28 2 47-18z m-111 255q-41 0-70 29t-29 71 29 70 70 29 71-29 29-70-29-71-71-29z m-350-693q59 0 110 34l77-77q-81-65-187-65-82 0-152 41t-111 110-41 153q0 105 65 187l77-77q-33-50-33-110 0-81 57-138t138-58z" horiz-adv-x="857.1" />

<glyph glyph-name="blind" unicode="&#xf29d;" d="M204 677q-35 0-61 25t-26 62q0 35 26 61t61 25 61-25 26-61q0-37-26-62t-61-25z m308-359q0-28-17-37t-35-4-27 19l-205 244q-4 7-8 9t-6 1l-1-2q-4-4 2-12l68-77 1-198-90-255q-38-107-52-130-8-15-15-18-28-15-58-1-16 7-23 24t-5 32q1 9 110 345l3 232-48-91 20-124q2-14-1-24t-8-15-10-9-10-4l-4-1q-10-2-19 1t-13 9-8 13-4 10-2 6l-25 167 118 212q12 19 63 19 41 0 59-22l237-291q4-3 8-9l1-2 0-1q4-7 4-16z m-225-83q24-64 49-126t39-94l13-31q21-51 24-69 6-39-20-54-20-13-37-9t-28 12-17 19h0q-4 9-5 14l-69 196z m460-331q17-27 17-32 0-3-2-4-5-2-8 1t-8 14-9 17q-64 96-236 369 1 0 4 1t3 2l2 1q6 5 6 10z" horiz-adv-x="785.7" />

<glyph glyph-name="assistive-listening-systems" unicode="&#xf2a2;" d="M71-114q0-15-10-25t-25-11-25 11-11 25 11 25 25 10 25-10 10-25z m108 107q0-15-11-25t-25-11-25 11-11 25 11 25 25 11 25-11 11-25z m25 204l143-143-51-50-142 142z m189 10q0-14-11-25t-25-11-25 11-11 25 11 25 25 11 25-11 11-25z m394 179q0-33-6-61t-21-52-24-38-30-36q-17-19-25-30t-19-28-15-35-4-42q0-88-63-151t-151-63q-15 0-25 11t-11 25 11 25 25 10q59 0 101 42t41 101q0 32 7 59t21 51 24 37 29 35q22 26 33 40t21 42 10 58q0 103-73 176t-177 74-177-74-73-176q0-15-11-25t-25-11-25 11-10 25q0 65 25 124t69 103 102 69 125 25 125-25 102-69 69-103 25-124z m-287-72q0-14-11-25t-25-10-25 10-10 25 10 25 25 11 25-11 11-25z m161 72q0-15-11-25t-25-11-25 11-11 25q0 52-36 88t-89 37q-51 0-88-37t-37-88q0-15-10-25t-25-11-25 11-11 25q0 81 57 139t139 57 139-57 58-139z m220 161q5-14-1-27t-20-19q-5-3-13-3-10 0-20 7t-13 16q-38 100-125 165-11 9-14 23t7 27q9 11 24 14t26-7q102-77 149-196z m117 45q5-14-1-27t-20-19q-6-2-13-2-24 0-33 23-51 132-166 219-12 9-14 23t7 27q9 12 23 14t27-7q131-98 190-251z" horiz-adv-x="1000" />

<glyph glyph-name="asl-interpreting" unicode="&#xf2a4;" d="M589 386q0-15 11-25t25-11 25 11 11 25q0 81-58 139t-139 57-139-57-57-139q0-15 11-25t25-11 25 11 10 25q0 52 37 88t88 37 89-37 36-88z m-123 321q-65 0-125-25t-102-69-69-103-25-124q0-15 10-25t25-11 25 11 11 25q0 103 73 176t177 74 177-74 73-176q0-31-10-58t-21-42-33-40q-19-22-29-35t-24-37-21-51-7-59q0-59-41-101t-101-42q-15 0-25-10t-11-25 11-25 25-11q88 0 151 63t63 151q0 23 4 42t15 35 19 28 25 30q19 23 30 36t24 38 21 52 6 61q0 65-25 124t-69 103-102 69-125 25z m-136-401l126-126-323-323q-7-7-16-7t-17 7l-93 93q-7 7-7 17t7 16z m570 537l93-93q7-7 7-17t-7-16l-130-130-14-14-40-40q-37 85-109 144l51 51 116 115q7 7 16 7t17-7z" horiz-adv-x="1000" />

<glyph glyph-name="low-vision" unicode="&#xf2a8;" d="M187 93q-1 0-3 1-48 32-94 81t-78 101q-12 17-12 38 0 5 1 11t2 10 4 10 5 9 6 9 5 9 7 8 6 9q103 140 253 203-62 111-62 118 0 11 10 16 64 36 71 36 10 0 16-9l69-128q51 11 107 11 148 0 278-77t211-206q11-17 11-39t-11-38q-51-79-122-142t-155-98q61-110 61-117 0-12-10-17-64-35-70-35-11 0-17 9l-69 128-36 66-247 458 4 3q-33-13-56-26 2-3 71-130t136-251 66-124q0-4-5-6-7-1-40-1-32 0-33 4l-255 469q-22-16-46-38 14-24 120-219t106-198q0-6-6-6-8 0-46 12t-41 16l-59 110-125 230q-25-29-44-59 2-1 11-14t12-19l99-182q0-6-6-6z m463 57l28-51q152 62 251 215-101 155-257 217 38-35 58-82t20-99q0-59-26-112t-74-88z m-177 343q0-11 8-19t19-8q48 0 82-34t34-82q0-11 8-19t19-8 19 8 8 19q0 70-50 120t-120 50q-11 0-19-8t-8-19z m205 36l-6 2 4-3z" horiz-adv-x="1000" />

<glyph glyph-name="id-badge" unicode="&#xf2c1;" d="M571 148q0-36-20-60t-51-24h-286q-30 0-50 24t-21 60 5 66 16 58 34 44 54 16q45-42 105-42t105 42q31 0 54-16t34-44 16-58 5-66z m-85 290q0-53-38-90t-91-37-90 37-38 90 38 89 90 37 91-37 38-89z m157-499v768h-572v-768q0-7 6-12t12-6h536q7 0 13 6t5 12z m71 822v-822q0-37-26-63t-63-26h-536q-36 0-63 26t-26 63v822q0 37 26 63t63 26h197v-54q0-7 5-12t13-5h107q8 0 13 5t5 12v54h196q37 0 63-26t26-63z" horiz-adv-x="714.3" />
</font>
</defs>
</svg>
