<?xml version="1.0" standalone="no"?>
<!DOCTYPE svg PUBLIC "-//W3C//DTD SVG 1.1//EN" "http://www.w3.org/Graphics/SVG/1.1/DTD/svg11.dtd">
<svg xmlns="http://www.w3.org/2000/svg">
<metadata>Copyright (C) 2019 by original authors @ fontello.com</metadata>
<defs>
<font id="iconic" horiz-adv-x="1000" >
<font-face font-family="iconic" font-weight="400" font-stretch="normal" units-per-em="1000" ascent="850" descent="-150" />
<missing-glyph horiz-adv-x="1000" />
<glyph glyph-name="search" unicode="&#xe800;" d="M335 246l25-25q-28-28-85-86t-73-74l-27 27q16 15 74 73t86 85z m245 551q136 0 234-97t97-234-97-234-234-96q-64 0-123 24l-255-257-184 185 256 255q-26 63-26 123 0 137 98 234t234 97z m0-551q91 0 155 64t64 156-64 155-155 64-156-64-64-155 64-156 156-64z" horiz-adv-x="928" />

<glyph glyph-name="mail" unicode="&#xe801;" d="M467 366l-449 210 0 109 893 0 0-109z m0-123l444 210 0-437-893 0 0 438z" horiz-adv-x="928" />

<glyph glyph-name="heart" unicode="&#xe802;" d="M464 633q78 108 200 108 102 0 175-73t72-176l0-20-447-513-446 513 0 20q0 102 73 175t175 74q120 0 198-108z" horiz-adv-x="928" />

<glyph glyph-name="heart-empty" unicode="&#xe803;" d="M664 629q-26 0-53-15t-41-30l-14-16-92-96-91 96q-6 7-15 17t-38 27-54 17q-50 0-89-34t-46-83l333-383 334 383q-7 50-45 83t-89 34z m0 112q102 0 175-73t72-176l0-20-447-513-446 513 0 20q0 102 73 175t175 74q120 0 198-108 78 108 200 108z" horiz-adv-x="928" />

<glyph glyph-name="star" unicode="&#xe804;" d="M636 250l108-347-280 216-278-216 108 348-276 211 335 0 111 335 112-335 335 0z" horiz-adv-x="928" />

<glyph glyph-name="user" unicode="&#xe805;" d="M353 351q139 0 237-99t98-236q0-47-33-80t-79-33l-446 0q-46 0-79 33t-33 80q0 138 98 236t237 99z m-167 279q0 167 167 167 168 0 168-167 0-168-168-168-167 0-167 168z" horiz-adv-x="705" />

<glyph glyph-name="video" unicode="&#xe806;" d="M799 574l112 111-109 112 109 0 0-894-893 0 0 894 112 0 112-112-114-111 113 0 114 113-111 110 157 0 113-112-114-111 132 0 114 113-112 110 156 0 109-112-110-111 110 0z m0-557l0 112-669 0 0-112 669 0z m0 222l0 112-669 0 0-112 669 0z" horiz-adv-x="928" />

<glyph glyph-name="picture" unicode="&#xe807;" d="M241 127l0 224 112 111 111-111 224 223 223-223 0-224-670 0z m-111-111l781 0-112-113-781 0 0 782 112 112 0-781z" horiz-adv-x="928" />

<glyph glyph-name="camera" unicode="&#xe808;" d="M464 239q0 112 112 112t112-112-112-112-112 112z m-446 223q0 46 33 79t79 33l223 0 96 185q13 38 53 38l153 0q40 0 53-37l91-186q46 0 79-33t33-79l0-559-893 0 0 559z m112-55q0-23 17-40t39-16 39 16 16 40-16 39-39 16-39-16-17-39z m223-168q0-92 66-158t157-65 157 65 66 158-66 157-157 66-157-66-66-157z" horiz-adv-x="928" />

<glyph glyph-name="ok" unicode="&#xe809;" d="M352-10l-334 333 158 160 176-174 400 401 159-160z" horiz-adv-x="928" />

<glyph glyph-name="ok-circle" unicode="&#xe80a;" d="M465 797q184 0 315-131t131-316-131-315-315-132-316 132-131 315 131 316 316 131z m-70-653l348 348-79 79-269-268-126 126-79-78z" horiz-adv-x="928" />

<glyph glyph-name="cancel" unicode="&#xe80b;" d="M799 116l-156-157-234 235-235-235-156 157 234 234-234 234 156 157 235-235 234 235 156-157-234-234z" horiz-adv-x="817" />

<glyph glyph-name="cancel-circle" unicode="&#xe80c;" d="M465 797q184 0 315-131t131-316-131-315-315-132-316 132-131 315 131 316 316 131z m220-588l-141 142 141 141-79 79-142-141-141 141-79-79 141-141-141-142 79-79 141 141 142-141z" horiz-adv-x="928" />

<glyph glyph-name="plus" unicode="&#xe80d;" d="M911 462l0-223-335 0 0-336-223 0 0 336-335 0 0 223 335 0 0 335 223 0 0-335 335 0z" horiz-adv-x="928" />

<glyph glyph-name="plus-circle" unicode="&#xe80e;" d="M465 797q184 0 315-131t131-316-131-315-315-132-316 132-131 315 131 316 316 131z m223-502l0 112-167 0 0 167-112 0 0-167-168 0 0-112 168 0 0-168 112 0 0 168 167 0z" horiz-adv-x="928" />

<glyph glyph-name="minus" unicode="&#xe80f;" d="M18 239l0 223 893 0 0-223-893 0z" horiz-adv-x="928" />

<glyph glyph-name="minus-circle" unicode="&#xe810;" d="M465 797q184 0 315-131t131-316-131-315-315-132-316 132-131 315 131 316 316 131z m223-502l0 112-447 0 0-112 447 0z" horiz-adv-x="928" />

<glyph glyph-name="help" unicode="&#xe811;" d="M286-40q0-24-16-40t-40-17q-24 0-40 17t-16 40 16 39 40 17 40-17 16-39z m-153 153q-41 48-41 103 0 61 41 95l187 186q33 32 33 79t-32 79-80 33-79-33-32-79l-112 0q0 93 66 159 64 62 158 62t158-64 64-157-64-158l-188-181q-8-9-8-21t8-19q21-19 40 0 8 8 8 19l112 0q0-55-41-103-41-41-98-41-59 0-100 41z" horiz-adv-x="482" />

<glyph glyph-name="info" unicode="&#xe812;" d="M74 351l-56 0 0 111 335 0 0-390q0-24 17-40t39-16l55 0 0-113-446 0 0 113 56 0q23 0 40 16t16 40l0 223q0 24-16 40t-40 16z m56 334q0 112 112 112t111-112-111-111-112 111z" horiz-adv-x="482" />

<glyph glyph-name="home" unicode="&#xe813;" d="M464 797l447-446-112 0 0-448-669 0 0 448-112 0z m224-781l0 401-224 157-223-157 0-401 168 0 0 168 112 0 0-168 167 0z" horiz-adv-x="928" />

<glyph glyph-name="link" unicode="&#xe814;" d="M895 781q17-15 17-39t-17-40l-114-114q55-80 45-181t-81-170l-167-167q-81-83-198-83-85 0-153 47l-114-114q-17-17-40-17-21 0-38 17-16 17-16 40t16 38l113 115q-56 80-45 180t81 172l166 166q78 82 198 82 86 0 154-46l113 114q15 16 39 16t41-16z m-180-346q0 38-17 72l-85-86q-17-16-38-16-23 0-40 16t-17 40 17 40l85 84q-36 16-72 16-73 0-121-48l-164-168q-49-49-49-118 0-38 16-71l83 83q16 16 40 16t37-16q16-17 16-40t-16-40l-80-82q36-17 70-17 70 0 119 49l167 167q49 49 49 119z" horiz-adv-x="928" />

<glyph glyph-name="attach" unicode="&#xe815;" d="M325-96q-127 0-217 90t-90 218 90 217l311 303q63 64 158 64t157-64q65-66 65-158t-65-157l-279-274q-41-41-98-40t-99 42-41 98 41 98l108 108 79-78-109-109q-7-7-7-19 0-13 7-21 19-19 40 0l279 274q33 32 33 79t-33 78q-31 31-79 31t-79-31l-311-303q-56-57-56-138t57-138q55-56 138-56t138 56l139 139 80-79-140-140q-90-90-217-90z" horiz-adv-x="817" />

<glyph glyph-name="lock" unicode="&#xe816;" d="M409 797q115 0 197-82t82-196l0-447q0-69-49-119t-118-50l-335 0q-70 0-119 50t-49 119l0 390 112 0 0 57q0 115 82 196t197 82z m-56-670q23 0 39 16t16 41q0 23-15 39t-40 16-39-16-16-39q0-24 16-41t39-16z m223 335l0 57q0 69-48 117t-118 49-119-49-50-117l0-57 335 0z" horiz-adv-x="705" />

<glyph glyph-name="lock-empty" unicode="&#xe817;" d="M409 797q115 0 197-82t82-196l0-447q0-69-49-119t-118-50l-336 0q-70 0-118 50t-49 119l0 390 112 0 0 57q0 115 82 196t197 82z m-168-278l0-57 335 0 0 57q0 69-48 117t-118 49-119-49-50-117z m280-503q23 0 39 16t16 40l0 279-446 0 0-279q0-24 16-40t39-16l336 0z m-112 168q0-23-16-40t-40-17q-23 0-39 16t-16 41q0 23 16 39t39 16 40-16 16-39z" horiz-adv-x="705" />

<glyph glyph-name="lock-open" unicode="&#xe818;" d="M409 797q115 0 197-82t82-196l0-447q0-69-49-119t-118-50l-335 0q-70 0-119 50t-49 119l0 390 558 0 0 57q0 69-48 117t-118 49-119-49-50-117l-111 0q0 115 82 196t197 82z m-56-670q23 0 39 16t16 41q0 23-15 39t-40 16-40-16-17-39 17-40 40-17z" horiz-adv-x="705" />

<glyph glyph-name="lock-open-empty" unicode="&#xe819;" d="M409 797q115 0 197-82t82-196l0-447q0-69-49-119t-118-50l-336 0q-70 0-118 50t-49 119l0 390 558 0 0 57q0 69-48 117t-118 49-119-49-50-117l-111 0q0 115 82 196t197 82z m112-781q23 0 39 16t16 40l0 279-446 0 0-279q0-24 16-40t39-16l336 0z m-112 168q0-23-16-40t-40-17q-23 0-39 16t-16 41q0 23 16 39t39 16 40-16 16-39z" horiz-adv-x="705" />

<glyph glyph-name="pin" unicode="&#xe81a;" d="M911 574q0-61-31-113t-84-82q2-19 2-27 0-138-98-237t-237-98q-103 0-186 56l-259-170 170 259q-60 88-60 190 0 138 98 236t237 99q6 0 18-2t13-2q30 52 81 83t113 31q92 0 158-66t65-157z m-447-445q92 0 157 65t65 157q-26 0-57 8l-88-88q-32-32-78-32t-79 32-32 79 32 80l89 89q-9 31-9 55l0 1-1 0q-92 0-157-66t-66-158 66-157 158-65z m224 333q45 0 78 33t33 78-33 79-78 33-79-33-33-79 33-78 79-33z" horiz-adv-x="928" />

<glyph glyph-name="eye" unicode="&#xe81b;" d="M465 685q68 0 140-34t124-82 95-97 64-83l23-34q-9-14-24-37t-63-81-97-103-121-82-141-36-140 34-124 85-96 100-64 86l-23 34q8 14 23 36t63 79 98 101 122 79 141 35z m0-558q92 0 158 65t65 158-65 158-158 66-158-66-66-158 66-158 158-65z m-112 223q0 112 112 112t111-112-111-111-112 111z" horiz-adv-x="928" />

<glyph glyph-name="tag" unicode="&#xe81c;" d="M389 797l522-522-371 0 0-372-522 523 0 371 371 0z m-167-310q44 0 76 31t31 75-31 75-76 32-75-32-31-75 31-75 75-31z" horiz-adv-x="928" />

<glyph glyph-name="tag-empty" unicode="&#xe81d;" d="M344 557q0-36-25-61t-61-25-60 25-25 61 25 61 60 25 61-25 25-61z m-326 240l371 0 522-522-370 0 0-372-523 524 0 370z m329-100l-229 0 0-229 324-324 0 231 229 0q-63 62-193 192z" horiz-adv-x="928" />

<glyph glyph-name="download" unicode="&#xe81e;" d="M18-97l0 128 670 0 0-128-670 0z m446 384l112 0-223-256-223 256 111 0 0 510 223 0 0-510z" horiz-adv-x="705" />

<glyph glyph-name="upload" unicode="&#xe81f;" d="M18 670l0 127 670 0 0-127-670 0z m223-256l-111 0 223 256 223-256-112 0 0-511-223 0 0 511z" horiz-adv-x="705" />

<glyph glyph-name="download-cloud" unicode="&#xe820;" d="M688 685q92 0 158-65t65-158-65-158-158-65l-167 0 0-167 111 0-168-169-166 169 111 0 0 167-168 0q-92 0-157 65t-66 158 66 158 157 65q11 0 30-2 29 52 81 83t112 31q60 0 113-31t81-83q19 2 30 2z m0-334q45 0 78 33t33 78-33 79-78 33-79-33-33-79l-112 0q0 109 90 178-33 45-90 45-45 0-78-33t-33-78q0-21 7-39l-104-39q-15 36-15 77-44-2-77-34t-34-77 33-78 78-33l447 0z" horiz-adv-x="928" />

<glyph glyph-name="upload-cloud" unicode="&#xe821;" d="M688 685q92 0 158-65t65-158-65-158-158-65l-447 0q-92 0-157 65t-66 158 66 158 157 65q11 0 30-2 29 52 81 83t112 31q60 0 113-31t81-83q19 2 30 2z m0-334q45 0 78 33t33 78-33 79-78 33-79-33-33-79l-112 0q0 109 90 178-33 45-90 45-45 0-78-33t-33-78q0-21 7-39l-104-39q-15 36-15 77-44-2-77-34t-34-77 33-78 78-33l447 0z m-167-279l0-169-112 0 0 169-111 0 166 167 168-167-111 0z" horiz-adv-x="928" />

<glyph glyph-name="quote-left" unicode="&#xe822;" d="M911 16l-335 0 0 335q0 139 99 236t236 98l0-111q-93 0-158-66t-65-157l223 0 0-335z m-558 0l-335 0 0 335q0 139 98 236t237 98l0-111q-93 0-158-66t-65-157l223 0 0-335z" horiz-adv-x="928" />

<glyph glyph-name="quote-right" unicode="&#xe823;" d="M18 685l335 0 0-334q0-140-98-238t-237-97l0 111q92 0 158 65t65 159l-223 0 0 334z m558 0l335 0 0-334q0-140-98-238t-237-97l0 111q92 0 158 65t65 159l-223 0 0 334z" horiz-adv-x="928" />

<glyph glyph-name="quote-left-alt" unicode="&#xe824;" d="M911 16l-335 0 0 335 335 334 0-669z m-558 0l-335 0 0 335 335 334 0-669z" horiz-adv-x="928" />

<glyph glyph-name="quote-right-alt" unicode="&#xe825;" d="M18 685l335 0 0-334-335-335 0 669z m558 0l335 0 0-334-335-335 0 669z" horiz-adv-x="928" />

<glyph glyph-name="pencil" unicode="&#xe826;" d="M846 732q66-66 66-158t-66-157l-512-514-316 0 1 318 511 511q65 65 158 65t158-65z m-558-716l478 479-158 157-474-473q34 29 78 27t75-32q32-32 32-79t-32-79l1 0z" horiz-adv-x="928" />

<glyph glyph-name="pencil-neg" unicode="&#xe827;" d="M846 731q66-66 66-157t-66-158l-512-513-316 0 1 317 511 511q66 66 158 66t158-66z m-559-716q32 32 32 79t-32 80-79 32-80-33l0-158 159 0z m477 479q33 32 33 79t-32 79-79 32-79-32z" horiz-adv-x="928" />

<glyph glyph-name="pencil-alt" unicode="&#xe828;" d="M879 764q32-32 32-79t-33-79l-422-421q-16 60-56 101t-101 56l421 423q32 32 79 32t80-33z m-559-716l-302-145 144 304q32 32 79 32t80-33 32-79-33-79z" horiz-adv-x="928" />

<glyph glyph-name="undo" unicode="&#xe829;" d="M804 694q107-107 107-262 0-150-107-257l-84-84-79 80 84 84q74 74 74 177 0 108-74 183-72 72-180 72t-180-72l-153-155 141 0 0-109-335 0 0 334 112 0 0-147 156 156q103 103 259 103t259-103z m-271-791l-79 79 79 81 79-81z" horiz-adv-x="928" />

<glyph glyph-name="comment" unicode="&#xe82a;" d="M576 629l-278 0q-70 0-119-49t-49-119l0-278q0-58 44-90 68 90 179 90l223 0q92 0 158 65t65 158-65 157-158 66z m0 112q139 0 237-99t98-236-98-237-237-98l-223 0q-46 0-79-33t-33-79q-92 0-157 66t-66 158l0 278q0 115 82 197t198 83l278 0z" horiz-adv-x="928" />

<glyph glyph-name="comment-inv" unicode="&#xe82b;" d="M18 183l0 278q0 115 82 197t198 83l278 0q139 0 237-99t98-236-98-237-237-98l-223 0q-46 0-79-33t-33-79q-92 0-157 66t-66 158z" horiz-adv-x="928" />

<glyph glyph-name="comment-alt" unicode="&#xe82c;" d="M464 574q-260 0-316-137-44-103 9-247 46 31 97 40t155 9l370 0q20 64 20 112t-9 81-41 69-102 54-183 19z m0 111q74 0 134-8t120-30 101-58 66-97 26-141q0-50-14-106t-29-86l-15-32-444 0q-126 0-160-14t-119-97q-26 25-50 72t-41 109-21 129 18 131 69 115 139 82 220 31z" horiz-adv-x="928" />

<glyph glyph-name="comment-inv-alt" unicode="&#xe82d;" d="M853 127l-444 0q-126 0-160-14t-119-97q-26 25-50 72t-41 109-21 129 18 131 69 115 139 82 220 31q74 0 134-8t120-30 101-58 66-97 26-141q0-50-14-106t-29-86z" horiz-adv-x="928" />

<glyph glyph-name="comment-alt2" unicode="&#xe82e;" d="M409 685q-115 0-197-82t-82-196q0-114 80-197l32-32 0-65q10 6 28 17t26 18l47-12q34-9 66-9 115 0 197 82t82 198-82 196-197 82z m0 112q162 0 276-114t114-276-114-277-276-114q-42 0-92 12l-187-125 1 229q-113 115-113 275 0 162 115 276t276 114z" horiz-adv-x="817" />

<glyph glyph-name="comment-inv-alt2" unicode="&#xe82f;" d="M409 797q162 0 276-114t114-276-114-277-276-114q-42 0-92 12l-187-125 1 229q-113 115-113 275 0 162 115 276t276 114z" horiz-adv-x="817" />

<glyph glyph-name="chat" unicode="&#xe830;" d="M743 456q74-14 121-68t47-149q0-113-65-168t-158-55l-112 0q-46 0-79-34t-33-79q-92 0-157 66t-66 158l0 112q0 29 6 56l106 0q2 0 5-1t4-1q-9-23-9-54l0-112q0-56 44-88 67 88 179 88l112 0q111 0 111 112 0 96-80 109 21 48 24 108z m-279 229l-223 0q-39 0-64-11t-34-33-11-35-2-32q0-112 111-112l112 0q111 0 179-89 44 33 44 89l0 112q0 65-34 88t-78 23z m0 112q92 0 158-58t66-165l0-112q0-92-65-158t-159-65q0 46-33 79t-78 33l-112 0q-93 0-158 55t-65 168q0 114 65 168t158 55l223 0z" horiz-adv-x="928" />

<glyph glyph-name="chat-inv" unicode="&#xe831;" d="M688 462q0-92-65-158t-159-65q0 46-33 79t-78 33l-112 0q-93 0-158 55t-65 168q0 114 65 168t158 55l223 0q92 0 158-58t66-165l0-112z m-335 0z m0 0z m390-6q74-14 121-68t47-149q0-113-65-168t-158-55l-112 0q-46 0-79-34t-33-79q-92 0-157 66t-66 158l0 112q0 29 6 56l106 0q24 0 40-17t16-39l0-55 55 0q113 0 195 79t84 193z" horiz-adv-x="928" />

<glyph glyph-name="location" unicode="&#xe832;" d="M495 715q81-81 81-197t-82-197q-8-9-21-23t-47-59-60-92-48-113-22-131q0 63-20 130t-49 115-58 90-49 62l-20 21q-82 81-82 197t82 197 197 82 198-82z m-199-308q47 0 80 33t33 78-33 79-80 33q-45 0-77-33t-33-79 33-78 77-33z" horiz-adv-x="594" />

<glyph glyph-name="location-inv" unicode="&#xe833;" d="M464 519q0 68-49 117t-119 49-117-49-49-117q0-70 49-119 61-61 117-151 54 86 120 152 48 48 48 118z m-168 278q117 0 199-82t81-197-82-197q-8-9-21-23t-47-59-60-92-48-113-22-131q0 63-20 130t-49 115-58 90-49 62l-20 21q-82 81-82 197t82 197 196 82z m57-278q0-24-17-41t-40-16q-25 0-40 16t-15 41 15 39 40 16q24 0 41-17t16-38z" horiz-adv-x="594" />

<glyph glyph-name="location-alt" unicode="&#xe834;" d="M242 797q92 0 157-66t65-157q0-55-55-223t-111-308l-57-140q-25 61-62 156t-99 277-62 238q0 92 66 157t158 66z m0-335q45 0 78 33t33 78-33 79-78 33-79-33-33-79 33-78 79-33z" horiz-adv-x="482" />

<glyph glyph-name="compass" unicode="&#xe835;" d="M464 685q-138 0-236-98t-98-237 98-237 236-97 237 97 98 237-98 237-237 98z m1 112q184 0 315-131t131-316-131-315-315-132-316 132-131 315 131 316 316 131z m60-388q-34 34-80 22l243 143-144-246q14 48-19 81z m-119-117q34-35 81-21l-246-144 144 244q-12-47 21-79z" horiz-adv-x="928" />

<glyph glyph-name="trash" unicode="&#xe836;" d="M688 685l223 0 0-111-112 0 0-502q0-69-48-119t-119-50l-334 0q-70 0-119 50t-49 119l0 502-112 0 0 111 223 0q0 46 33 79t79 33l223 0q46 0 79-33t33-79z m-335-558q24 0 40 17t16 40-16 39-40 16-39-16-16-39q0-24 16-41t39-16z m0 224q24 0 40 16t16 40-16 39-40 16-39-16-16-39q0-24 16-40t39-16z m223-224q24 0 40 17t16 40-16 39-40 16-39-16-16-39q0-24 16-41t39-16z m0 224q24 0 40 16t16 40-16 39-40 16-39-16-16-39q0-24 16-40t39-16z" horiz-adv-x="928" />

<glyph glyph-name="trash-empty" unicode="&#xe837;" d="M911 685l0-111-112 0 0-502q0-69-48-119t-119-50l-334 0q-70 0-119 50t-49 119l0 502-112 0 0 111 223 0q0 46 33 79t79 33l223 0q46 0 79-33t33-79l223 0z m-223-613l0 502-447 0 0-502q0-24 17-40t40-16l334 0q23 0 40 16t16 40z m-390 112q0 55 55 55 56 0 56-55 0-57-56-57-55 0-55 57z m0 223q0 55 55 55 56 0 56-55 0-56-56-56-55 0-55 56z m223-223q0 55 55 55 56 0 56-55 0-57-56-57-55 0-55 57z m0 223q0 55 55 55 56 0 56-55 0-56-56-56-55 0-55 56z" horiz-adv-x="928" />

<glyph glyph-name="doc" unicode="&#xe838;" d="M409 797l279-278 0-616-670 0 0 894 391 0z m-279-781l446 0 0 446-223 0 0 223-223 0 0-669z" horiz-adv-x="705" />

<glyph glyph-name="doc-inv" unicode="&#xe839;" d="M409 797l279-278 0-616-670 0 0 894 391 0z m-59-335l224 0-224 223 0-223z" horiz-adv-x="705" />

<glyph glyph-name="doc-alt" unicode="&#xe83a;" d="M632 797l279-278 0-616-221 186-223-186-225 186-224-185 0 893 614 0z m168-667l0 223-336 0 0 335-334 0 0-558 114 89 223-184 223 185z m-224 335l224 0q-21 21-111 110t-113 113l0-223z" horiz-adv-x="928" />

<glyph glyph-name="doc-inv-alt" unicode="&#xe83b;" d="M622 797l289-287 0-607-223 186-224-186-223 186-223-186 0 894 604 0z m-101-390l278 0-278 278 0-278z" horiz-adv-x="928" />

<glyph glyph-name="article" unicode="&#xe83c;" d="M911 685l-893 0 0 112 893 0 0-112z m-335-223l-558 0 0 112 558 0 0-112z m335-335l-893 0 0 112 893 0 0-112z m-223-224l-670 0 0 113 670 0 0-113z m223 57q0-24-16-40t-39-17-40 17-17 40 17 39 40 17q22 0 39-17t16-39z" horiz-adv-x="928" />

<glyph glyph-name="article-alt" unicode="&#xe83d;" d="M911 685l-893 0 0 112 893 0 0-112z m-335-223l-558 0 0 112 558 0 0-112z m335-225l-893 0 0 111 893 0 0-111z m-893-277q0 56 56 56t56-56q0-57-56-57t-56 57z m280 56q22 0 39-17t16-39-16-40-39-17q-24 0-40 17t-17 40 17 39 40 17z m166-56q0 56 57 56 55 0 55-56 0-57-55-57-57 0-57 57z" horiz-adv-x="928" />

<glyph glyph-name="book-open" unicode="&#xe83e;" d="M464 629q5 5 15 12t47 26 83 35 127 27 175 12l0-670q-95 0-176-12t-128-27-82-34-47-29l-14-10q-4 4-13 12t-46 26-83 35-127 27-177 12l0 670q94 0 174-12t128-27 83-33 48-29z m-334 0l0-450q172-14 279-71l0 449q-110 58-279 72z m669-450l0 450q-168-14-278-72l0-449q108 57 278 71z" horiz-adv-x="928" />

<glyph glyph-name="folder" unicode="&#xe83f;" d="M911-40q0-24-16-40t-39-17l-782 0q-24 0-40 17t-16 40l0 502 893 0 0-502z m-558 725l558 0 0-111-893 0 0 223 335 0 0-112z" horiz-adv-x="928" />

<glyph glyph-name="folder-empty" unicode="&#xe840;" d="M464 685l447 0 0-669q0-47-33-80t-79-33l-669 0q-46 0-79 33t-33 80l0 781 446 0 0-112z m-334 0l0-223 669 0 0 112-446 0 0 111-223 0z m669-669l0 335-669 0 0-335 669 0z" horiz-adv-x="928" />

<glyph glyph-name="box" unicode="&#xe841;" d="M18-97l0 559 893 0 0-559-893 0z m503 671l0 223 278 0 112-223-390 0z m-112 223l0-223-391 0 112 223 279 0z" horiz-adv-x="928" />

<glyph glyph-name="rss" unicode="&#xe842;" d="M784-97q0 209-103 385t-279 279-384 103l0 127q181 0 347-71t285-190 190-285 71-348l-127 0z m-256 0q0 212-150 361t-360 150l0 129q173 0 320-86t233-233 85-321l-128 0z m-254 0q0 107-75 182t-181 75l0 127q158 0 271-112t112-272l-127 0z m-129 0l-127 0 0 128q53 0 90-38t37-90z" horiz-adv-x="928" />

<glyph glyph-name="rss-alt" unicode="&#xe843;" d="M18 15q0 112 112 112t111-112-111-112-112 112z m336 56q0 68-50 118t-118 50l0 112q116 0 197-82 83-85 83-198l-112 0z m-169 391l0 112q144 0 258-71t177-180q68-116 68-252l-112 0q0 112-54 201t-140 139q-89 51-197 51z m0 223l0 112q153 0 287-60t227-153 153-226 59-287l-112 0q0 130-50 242t-130 192-192 130-242 50z" horiz-adv-x="928" />

<glyph glyph-name="cog" unicode="&#xe844;" d="M911 295l-133-56q-8-22-12-31l55-133-79-79-135 53q-9-4-31-12l-55-134-112 0-56 133q-11 4-33 13l-132-55-78 79 53 134q-1 3-4 9t-6 12-4 11l-131 55 0 112 131 56 14 33-54 132 78 79 133-54q22 9 33 13l55 132 112 0 56-132q14-5 31-13l133 55 80-79-54-135q6-12 12-30l133-56 0-112z m-447-111q69 0 118 48t49 118-49 119-118 50-119-50-49-119 49-118 119-48z" horiz-adv-x="928" />

<glyph glyph-name="wrench" unicode="&#xe845;" d="M900 640q11-37 11-66 0-93-65-158t-158-65q-51 0-96 22l-447-448q-21-22-53-22-30 0-52 22t-22 53 22 53l447 447q-23 45-23 96 0 92 66 157t158 66q31 0 63-10l-138-139 0-149 147 0z" horiz-adv-x="928" />

<glyph glyph-name="share" unicode="&#xe846;" d="M799 127q46 0 79-33t33-79-33-79-78-33-79 33-33 80q0 18 8 39l-169 122q-49-50-118-50t-118 49-50 119q0 9 3 26l-134 44q-16-14-36-14-24 0-40 16t-16 40 16 39 40 16q20 0 34-13t19-31l135-45q21 41 61 65t86 24q52 0 96-31l199 199q-16 30-16 55 0 46 33 79t79 33 78-33 33-79-33-78-79-33q-26 0-55 17l-199-200q31-44 31-96 0-37-17-73l169-121q33 26 71 26z" horiz-adv-x="928" />

<glyph glyph-name="calendar" unicode="&#xe847;" d="M911-97l-893 0 0 782 112 0 0-669 669 0 0 669 112 0 0-782z m-725 448l0 111 112 0 0-111-112 0z m223 0l0 111 112 0 0-111-112 0z m223 0l0 111 112 0 0-111-112 0z m-446-224l0 112 112 0 0-112-112 0z m223 0l0 112 112 0 0-112-112 0z m223 0l0 112 112 0z m-391 503l0 112q0 23 17 39t40 16 40-16 15-39l0-112q0-24-16-40t-39-16q-24 0-40 16t-17 40z m335 0l0 112q0 23 16 39t40 16q23 0 40-16t16-39l0-112q0-24-16-40t-39-16-40 16-17 40z" horiz-adv-x="928" />

<glyph glyph-name="calendar-inv" unicode="&#xe848;" d="M744 685l167 0 0-782-893 0 0 782 168 0 0-56q0-46 33-79t79-33 78 33 33 79l0 56 112 0 0-56q0-46 33-79t79-33 78 33 33 79l0 56z m-446-669l0 111-112 0 0-111 112 0z m0 223l0 112-112 0 0-112 112 0z m223-223l0 111-112 0 0-111 112 0z m0 223l0 112-112 0 0-112 112 0z m111-223l112 111-112 0 0-111z m112 223l0 112-112 0 0-112 112 0z m-503 391l0 112q0 23 17 39t40 16 40-16 15-39l0-112q0-24-16-40t-39-16q-24 0-40 16t-17 40z m335 0l0 112q0 23 16 39t40 16q23 0 40-16t16-39l0-112q0-24-16-40t-39-16-40 16-17 40z" horiz-adv-x="928" />

<glyph glyph-name="calendar-alt" unicode="&#xe849;" d="M685 685l226 0 0-111-893 0 0 111 221 0 0 112 111 0 0-112 224 0 0 112 111 0 0-112z m-555-558l0 112 669 0 0-112-669 0z m0 224l0 111 669 0 0-111-669 0z m558-448l-558 0 0 113 669 0z" horiz-adv-x="928" />

<glyph glyph-name="mic" unicode="&#xe84a;" d="M353 351q-46 0-79 33t-33 78l0 223q0 46 33 79t79 33 78-33 33-79l0-223q0-45-33-78t-78-33z m111-335q46 0 79-34t33-79l-446 0q0 46 33 79t78 34l57 0 0 117q-120 21-200 113t-80 216l0 54q0 24 16 40t40 17q23 0 40-17t16-40l0-54q0-92 65-158t158-65 158 65 65 158l0 54q0 24 17 40t40 17 39-17 16-40l0-54q0-123-79-216t-200-113l0-117 55 0z" horiz-adv-x="705" />

<glyph glyph-name="volume-off" unicode="&#xe84b;" d="M241 127q-92 0-157 65t-66 158 66 158 157 66l0-447z m112 447l223 111 0-669-223 111 0 447z m558-279l-223 0 0 112 223 0 0-112z" horiz-adv-x="928" />

<glyph glyph-name="volume-up" unicode="&#xe84c;" d="M241 127q-92 0-157 65t-66 158 66 158 157 66l0-447z m112 447l223 111 0-669-223 111 0 447z m446-223q0 44-31 77t-80 34l0 112q27 0 55-7 74-20 121-80t47-136q0-90-63-157t-160-67l0 112q49 0 80 33t31 79z" horiz-adv-x="928" />

<glyph glyph-name="headphones" unicode="&#xe84d;" d="M856 294q22 0 39-16t16-40l0-223q0-24-16-40t-39-16l-168 0 0 447q0 92-65 157t-158 66-158-66-66-157l0-447-167 0q-24 0-40 16t-16 40l0 223q0 23 16 39t40 17l56 0 0 112q0 138 98 236t236 99 237-99 98-236l0-112 57 0z" horiz-adv-x="928" />

<glyph glyph-name="clock" unicode="&#xe84e;" d="M464 685q-138 0-236-98t-98-237 98-237 236-97 237 97 98 237-98 237-237 98z m1 112q184 0 315-131t131-316-131-315-315-132-316 132-131 315 131 316 316 131z m151-518l-80-80-109 111q-19 17-19 41l0 223 113 0 0-199z" horiz-adv-x="928" />

<glyph glyph-name="lamp" unicode="&#xe84f;" d="M298 685q-70 0-119-49t-49-119q0-84 66-133 81-62 97-144l8 0q16 83 97 144 66 49 66 133 0 70-48 119t-118 49z m0 112q115 0 197-82t81-198q0-136-110-222-57-43-57-96l0-72-223 0 0 72q0 52-58 96-110 86-110 222 0 117 82 198t198 82z m-112-894l0 113 223 0 0-113-223 0z" horiz-adv-x="594" />

<glyph glyph-name="block" unicode="&#xe850;" d="M465 797q184 0 315-131t131-316-131-315-315-132-316 132-131 315 131 316 316 131z m-1-112q-138 0-236-98t-98-236q0-107 62-194l466 466q-87 62-194 62z m0-669q138 0 237 97t98 238q0 106-62 193l-466-466q87-62 193-62z" horiz-adv-x="928" />

<glyph glyph-name="resize-full" unicode="&#xe851;" d="M784 111l127 128 0-336-335 0 128 130-128 127 79 79z m-431 686l-129-127 128-127-80-80-126 128-128-129 0 335 335 0z m0-637l-129-127 129-130-335 0 0 336 128-128 128 128z m558 637l0-335-127 129-128-128-79 80 127 127-128 127 335 0z" horiz-adv-x="928" />

<glyph glyph-name="resize-full-alt" unicode="&#xe852;" d="M839 55l72 72 0-224-223 0 72 72-184 185 79 79z m-749 591l-72-72 0 223 223 0-72-72 184-184-79-79z m670 79l-72 72 223 0 0-223-72 72-184-184-79 79z m-407-565l-184-185 72-72-223 0 0 224 72-72 184 184z" horiz-adv-x="928" />

<glyph glyph-name="resize-small" unicode="&#xe853;" d="M704 33l-128-130 0 336 335 0-127-128 127-129-79-79z m-686 429l128 129-127 126 79 79 126-126 129 127 0-335-335 0z m0-480l128 129-128 128 335 0 0-336-129 130-127-130z m558 480l0 335 128-127 128 126 78-79-126-126 127-129-335 0z" horiz-adv-x="928" />

<glyph glyph-name="resize-small-alt" unicode="&#xe854;" d="M648 88l-72-72 0 223 223 0-72-72 184-185-79-79z m-448 447l-182 183 79 79 183-182 73 70-1-222-222-1z m-182-553l184 185-72 72 223 0 0-223-72 72-184-185z m782 480l-224 0 0 225 73-72 183 182 79-79-183-183z" horiz-adv-x="928" />

<glyph glyph-name="resize-vertical" unicode="&#xe855;" d="M241 239l0-167 112 0-167-169-168 169 112 0 0 167 111 0z m-111 223l0 168-112 0 168 167 167-167-112 0 0-168-111 0z" horiz-adv-x="370" />

<glyph glyph-name="resize-horizontal" unicode="&#xe856;" d="M353 294l-167 0 0-111-168 167 168 168 0-112 167 0 0-112z m223 112l168 0 0 112 167-168-167-167 0 111-168 0 0 112z" horiz-adv-x="928" />

<glyph glyph-name="move" unicode="&#xe857;" d="M521 239l0-167 111 0-168-169-166 169 111 0 0 167 112 0z m-112 223l0 168-111 0 166 167 168-167-111 0 0-168-112 0z m-56-167l-167 0 0-111-168 167 168 168 0-112 167 0 0-112z m223 112l168 0 0 112 167-168-167-167 0 111-168 0 0 112z" horiz-adv-x="928" />

<glyph glyph-name="popup" unicode="&#xe858;" d="M911 797l0-670-223 0 0-224-670 0 0 671 223 0 0 223 670 0z m-335-781l0 111-335 0 0 224-111 0 0-335 446 0z m223 223l0 335-446 0 0-335 446 0z" horiz-adv-x="928" />

<glyph glyph-name="down" unicode="&#xe859;" d="M911 351l-447-448-446 448 158 158 177-176 0 464 223 0 0-464 176 175z" horiz-adv-x="928" />

<glyph glyph-name="left" unicode="&#xe85a;" d="M464-97l-446 448 446 446 159-158-177-177 465 0 0-223-465 0 177-176z" horiz-adv-x="928" />

<glyph glyph-name="right" unicode="&#xe85b;" d="M464 797l447-446-447-448-157 160 175 176-464 0 0 224 464 0-175 176z" horiz-adv-x="928" />

<glyph glyph-name="up" unicode="&#xe85c;" d="M18 352l446 445 447-445-159-159-176 177 0-467-223 0 0 467-177-177z" horiz-adv-x="928" />

<glyph glyph-name="down-circle" unicode="&#xe85d;" d="M911 350q0-184-131-315t-315-132-316 132-131 315 131 316 316 131 315-131 131-316z m-670-1l223-222 222 222-165 0 0 225-112 0 0-225-168 0z" horiz-adv-x="928" />

<glyph glyph-name="left-circle" unicode="&#xe85e;" d="M465-97q-185 0-316 132t-131 315 131 316 316 131 315-131 131-316-131-315-315-132z m-2 671l-222-223 222-222 0 166 225 0 0 112-225 0 0 167z" horiz-adv-x="928" />

<glyph glyph-name="right-circle" unicode="&#xe85f;" d="M465 797q184 0 315-131t131-316-131-315-315-132-316 132-131 315 131 316 316 131z m1-670l222 224-222 222 0-166-225 0 0-112 225 0 0-168z" horiz-adv-x="928" />

<glyph glyph-name="up-circle" unicode="&#xe860;" d="M18 350q0 185 130 316t316 131q185 0 316-131t131-316-131-315-315-132-316 132-131 315z m670 2l-224 222-222-222 167 0 0-225 112 0 0 225 167 0z" horiz-adv-x="928" />

<glyph glyph-name="cw" unicode="&#xe861;" d="M576 294l112 0q0-139-98-237t-237-98-237 98-98 237 98 237 237 98l66 0-33 33 80 79 166-168-166-168-80 79 33 32-66 2q-93 0-158-66t-65-158 65-158 158-65 158 65 65 158z" horiz-adv-x="705" />

<glyph glyph-name="loop" unicode="&#xe862;" d="M575 183l168 223 168-223-112 0 0-57q0-69-48-118t-119-49l-334 0q-70 0-119 49t-49 118l0 57 111 0 0-57q0-22 17-39t40-16l334 0q23 0 40 15t16 40l0 57-113 0z m-221 335l-167-224-169 224 112 0 0 55q0 69 49 118t119 50l334 0q70 0 119-50t48-118l0-55-111 0 0 55q0 24-16 40t-40 16l-334 0q-24 0-40-16t-17-40l0-55 113 0z" horiz-adv-x="928" />

<glyph glyph-name="loop-alt" unicode="&#xe863;" d="M799 351l112 0 0-56q0-69-48-119t-119-49l-391 0 0-111-223 168 223 167 0-112 391 0q23 0 39 16t16 40l0 56z m-669 56l0-56-112 0 0 56q0 70 49 118t119 49l390 0 0 111 223-166-223-168 0 111-390 0q-24 0-40-16t-16-39z" horiz-adv-x="928" />

<glyph glyph-name="exchange" unicode="&#xe864;" d="M911 127l-670 0 0-111-223 168 223 167 0-112 670 0 0-112z m-893 335l0 112 670 0 0 111 223-166-223-168 0 111-670 0z" horiz-adv-x="928" />

<glyph glyph-name="split" unicode="&#xe865;" d="M576 797l112 0 0-108q0-115-82-197l-316-314q-44-45-48-106l111 0-167-169-168 169 113 0q6 111 80 185l316 314q49 50 49 118l0 108z m110-725l113 0-167-169-168 169 111 0q-4 61-48 106l-63 62 80 79 62-62q74-74 80-185z" horiz-adv-x="817" />

<glyph glyph-name="arrow-curved" unicode="&#xe866;" d="M799 295l0-56 112 0-223-223-224 223 112 0 0 56q0 116-81 197t-197 82-198-82-82-197q0 162 115 276t276 114 276-114 114-276z" horiz-adv-x="928" />

<glyph glyph-name="play" unicode="&#xe867;" d="M18 797l670-446-670-448 0 894z" horiz-adv-x="705" />

<glyph glyph-name="play-circle2" unicode="&#xe868;" d="M465 797q184 0 315-131t131-316-131-315-315-132-316 132-131 315 131 316 316 131z m-167-670l446 224-446 223 0-447z" horiz-adv-x="928" />

<glyph glyph-name="stop" unicode="&#xe869;" d="M18-97l0 894 893 0 0-894-893 0z" horiz-adv-x="928" />

<glyph glyph-name="pause" unicode="&#xe86a;" d="M18-97l0 894 223 0 0-894-223 0z m446 0l0 894 224 0 0-894-224 0z" horiz-adv-x="705" />

<glyph glyph-name="to-start" unicode="&#xe86b;" d="M911-97l-670 448 670 446 0-894z m-893 113l0 669 223 0 0-669-223 0z" horiz-adv-x="928" />

<glyph glyph-name="to-end" unicode="&#xe86c;" d="M18 797l670-446-670-448 0 894z m670-781l0 669 223 0 0-669-223 0z" horiz-adv-x="928" />

<glyph glyph-name="eject" unicode="&#xe86d;" d="M18 239l446 558 447-558-893 0z m0-336l0 224 892 0 0-224-892 0z" horiz-adv-x="928" />

<glyph glyph-name="target" unicode="&#xe86e;" d="M521 407l0 162q60-16 103-60t59-102l-162 0z m0-113l162 0q-16-59-59-103t-103-59l0 162z m-113 113l-162 0q16 59 59 102t103 60l0-162z m0-113l0-162q-60 16-103 59t-59 103l162 0z m113 390l0 113q152-19 261-128t129-262l-113 0q-18 107-95 183t-182 94z m-390-277l-113 0q19 152 128 261t262 129l0-113q-106-18-182-94t-95-183z m277-390l0-114q-154 19-262 129t-128 262l113 0q18-107 95-183t182-94z m390 277l113 0q-21-153-129-262t-261-129l0 114q105 18 182 94t95 183z" horiz-adv-x="928" />

<glyph glyph-name="signal" unicode="&#xe86f;" d="M688-97l0 894 111 0 0-894-111 0z m-224 0l0 671 112 0 0-671-112 0z m-223 0l0 448 112 0 0-448-112 0z m-223 0l0 224 112 0 0-224-112 0z" horiz-adv-x="817" />

<glyph glyph-name="award" unicode="&#xe870;" d="M241 239q53 0 112 20l0-356-112 113-111-113 0 356q58-20 111-20z m-223 335q0 223 223 223t223-223-223-223-223 223z" horiz-adv-x="482" />

<glyph glyph-name="award-empty" unicode="&#xe871;" d="M241 239q53 0 112 20l0-356-112 113-111-113 0 356q58-20 111-20z m1 558q92 0 157-66t65-158-65-157-157-65-158 65-66 157 66 158 158 66z m0-335q45 0 78 33t33 78-33 79-78 33-79-33-33-79 33-78 79-33z" horiz-adv-x="482" />

<glyph glyph-name="list" unicode="&#xe872;" d="M18 684q0 57 56 57t56-57q0-55-56-55t-56 55z m0-223q0 57 56 57t56-57q0-55-56-55t-56 55z m0-223q0 56 56 56t56-56q0-55-56-55t-56 55z m0-223q0 56 56 56t56-56q0-56-56-56t-56 56z m223 614l0 112 670 0 0-112-670 0z m0-223l0 112 670 0 0-112-670 0z m0-223l0 111 670 0 0-111-670 0z m0-224l0 112 670 0 0-112-670 0z" horiz-adv-x="928" />

<glyph glyph-name="list-nested" unicode="&#xe873;" d="M18 684q0 57 56 57t56-57q0-55-56-55t-56 55z m223-55l0 112 670 0 0-112-670 0z m0-168q0 57 57 57 55 0 55-57 0-55-55-55-57 0-57 55z m223-55l0 112 447 0 0-112-447 0z m-223-391q0 56 57 56 55 0 55-56 0-56-55-56-57 0-57 56z m223-56l0 112 447 0 0-112-447 0z m0 279q0 56 57 56 55 0 55-56 0-55-55-55-57 0-57 55z m224-55l0 111 223 0 0-111-223 0z" horiz-adv-x="928" />

<glyph glyph-name="bat-empty" unicode="&#xe874;" d="M911 462l0-223-112 0 0-55q0-24-16-41t-39-16l-670 0q-24 0-40 17t-16 40l0 335q0 22 16 38t40 17l670 0q24 0 40-16t15-39l0-57 112 0z m-223-223l0 223-558 0 0-223 558 0z" horiz-adv-x="928" />

<glyph glyph-name="bat-half" unicode="&#xe875;" d="M911 462l0-223-112 0 0-55q0-24-16-41t-39-16l-670 0q-24 0-40 17t-16 40l0 335q0 22 16 38t40 17l670 0q24 0 40-16t15-39l0-57 112 0z m-223-223l0 223-224 0 0-223 224 0z" horiz-adv-x="928" />

<glyph glyph-name="bat-full" unicode="&#xe876;" d="M911 462l0-223-112 0 0-55q0-24-16-41t-39-16l-670 0q-24 0-40 17t-16 40l0 335q0 22 16 38t40 17l670 0q24 0 40-16t15-39l0-57 112 0z" horiz-adv-x="928" />

<glyph glyph-name="bat-charge" unicode="&#xe877;" d="M799 462l112 0 0-223-112 0 0-55q0-24-16-41t-39-16l-670 0q-24 0-40 17t-16 40l0 110 179 0q17-49 60-80t97-31l0 56 113 0 0 56-113 0 0 112 110 0 0 55-110 0 0 55q-54 0-97-31t-60-80l-179 0 0 113q0 22 16 38t40 17l670 0q24 0 40-16t15-39l0-57z" horiz-adv-x="928" />

<glyph glyph-name="mobile" unicode="&#xe878;" d="M464 797q93 0 159-66t65-157l0-447q0-92-65-158t-159-66l-223 0q-92 0-157 66t-66 158l0 447q0 92 66 157t157 66l223 0z m-111-840q24 0 41 17t16 42-16 40-41 17-41-17-17-40 17-42 41-17z m223 170l0 447q0 45-33 78t-79 33l-223 0q-45 0-78-33t-33-78l0-447 446 0z" horiz-adv-x="705" />

<glyph glyph-name="cd" unicode="&#xe879;" d="M465 797q184 0 315-131t131-316-131-315-315-132-316 132-131 315 131 316 316 131z m1-556q45 0 78 32t32 78-32 78-78 33-78-33-33-78 33-78 78-32z" horiz-adv-x="928" />

<glyph glyph-name="equalizer" unicode="&#xe87a;" d="M576 239l0-112-55 0 0-167q0-23-17-40t-39-17-39 17-17 40l0 167-56 0 0 112 56 0 0 503q0 24 17 39t38 16q24 0 41-16t16-39l0-503 55 0z m335 335l0-112-55 0 0-502q0-23-16-40t-41-17q-23 0-39 17t-16 40l0 502-56 0 0 112 56 0 0 168q0 24 16 39t39 16 41-16 16-39l0-168 55 0z m-670-112l0-111-55 0 0-391q0-23-16-40t-40-17q-23 0-39 17t-17 40l0 391-56 0 0 111 56 0 0 280q0 24 16 39t40 16 40-16 16-39l0-280 55 0z" horiz-adv-x="928" />

<glyph glyph-name="cursor" unicode="&#xe87b;" d="M911 16l-112-113-390 392-168-168-223 670 670-223-167-167z" horiz-adv-x="928" />

<glyph glyph-name="aperture" unicode="&#xe87c;" d="M608 407l-225 382q47 8 81 8 177 0 304-120z m-33-168l233 395q103-125 103-283 0-53-16-112l-320 0z m-96 280l-427 0q37 91 109 158t167 97z m-24-335l423 0q-37-90-108-157t-165-99z m-99 278l-234-396q-104 126-104 285 0 52 16 111l322 0z m-33-165l227-385q-48-9-86-9-172 0-302 121z" horiz-adv-x="928" />

<glyph glyph-name="aperture-alt" unicode="&#xe87d;" d="M864 547q47-97 47-196 0-36-9-82l-316 0z m-258-175l0 400q145-48 228-172z m-121-162l401 0q-50-146-172-230z m62 259l-281 280q96 48 198 48 38 0 83-8l0-320z m-164-240l277-279q-97-47-196-47-34 0-81 9l0 317z m-60 100l0-401q-145 48-228 173z m-297 104l317 0-278-278q-47 97-47 196 0 36 8 82z m188 287l228-228-399 0q48 145 171 228z" horiz-adv-x="928" />

<glyph glyph-name="steering-wheel" unicode="&#xe87e;" d="M465 797q184 0 315-131t131-316-131-315-315-132-316 132-131 315 131 316 316 131z m0-112q-107 0-193-62t-122-161l629 0q-36 99-122 161t-192 62z m-1-390q24 0 41 16t16 40q0 24-17 40t-39 16-39-16-17-40 17-40 38-16z m-334 56q0-124 79-217t199-112q-2 137-83 233t-195 96z m391-329q120 20 199 112t79 217q-114 0-195-96t-83-233z" horiz-adv-x="928" />

<glyph glyph-name="book" unicode="&#xe87f;" d="M130 797l669 0 0-894-669 0q-46 0-79 33t-33 80l0 669q0 46 33 79t79 33z m558-781l0 669-112 0 0-224-112 112-111-112 0 224-112 0 0-669 447 0z" horiz-adv-x="817" />

<glyph glyph-name="book-alt" unicode="&#xe880;" d="M353 461l0 113 223 0 0-113-223 0z m446 112l111-112-111 0 0-558-669 0q-46 0-79 33t-33 80l0 669q0 46 33 79t79 33l669 0 0-112 112 0z m-111-557l0 669-447 0 0-669 447 0z" horiz-adv-x="928" />

<glyph glyph-name="brush" unicode="&#xe881;" d="M464 202q0-124-87-212t-210-87q-81 0-149 40 68 39 109 108t40 151q0 61 44 105t105 44 105-44 43-105z m415 562q32-32 32-79t-33-79l-318-318q-20 55-61 97t-97 62l318 318q32 32 79 32t80-33z" horiz-adv-x="928" />

<glyph glyph-name="brush-alt" unicode="&#xe882;" d="M353 127q0-92-65-158t-158-66q-62 0-112 30 52 29 82 81t30 113q0 46 33 79t79 33 78-33 33-79z m526 637q32-32 32-79t-33-79l-422-421q-16 58-58 100t-99 57l421 423q32 32 79 32t80-33z" horiz-adv-x="928" />

<glyph glyph-name="eyedropper" unicode="&#xe883;" d="M845 415l-16-16 81-81-80-78-80 81-415-418-208 0-109 113 0 201 418 418-83 84 78 78 83-83 16 17q65 65 158 65t157-65q66-65 66-158t-66-158z m-539-381l366 365-158 158-360-361q63-3 106-46 48-48 46-116z" horiz-adv-x="928" />

<glyph glyph-name="layers" unicode="&#xe884;" d="M18 183l446-112 447 112 0-112-447-112-446 112 0 112z m0 223l446-112 447 112 0-112-447-111-446 111 0 112z m0 223l446 112 447-112 0-111-447-112-446 112 0 111z" horiz-adv-x="928" />

<glyph glyph-name="layers-alt" unicode="&#xe885;" d="M18 127l446-111 447 111 0-111-447-113-446 113 0 111z m0 224l446-112 447 112 0-112-447-112-446 112 0 112z m0 223l446-112 447 112 0-112-447-111-446 111 0 112z m0 223l446-112 447 112 0-112-447-111-446 111 0 112z" horiz-adv-x="928" />

<glyph glyph-name="sun" unicode="&#xe886;" d="M465 462q-46 0-79-33t-33-79 33-78 79-33 78 33 33 78-33 79-78 33z m0 112q92 0 158-66t65-158-65-158-158-65-158 65-66 158 66 158 158 66z m-56 168q0 55 55 55 57 0 57-55 0-57-57-57-55 0-55 57z m-279-112q0 55 56 55 55 0 55-55 0-56-55-56-56 0-56 56z m-56-223q23 0 40-16t16-40-16-40-40-16-40 16-16 40q0 24 16 40t40 16z m56-335q0 55 56 55 55 0 55-55 0-56-55-56-56 0-56 56z m279-112q0 22 17 39t38 17q24 0 41-17t16-39-17-40-39-17-39 17-17 40z m296 72q-16 16-16 39t16 39 39 17 40-17 15-39-15-39-40-15-39 15z m151 263q-24 0-40 16t-17 40q0 24 17 40t40 16 39-16 16-40-16-40-39-16z m-72 295q-16-16-40-16t-39 16-16 40 16 40 39 17 40-17 15-40-15-40z" horiz-adv-x="928" />

<glyph glyph-name="sun-inv" unicode="&#xe887;" d="M465 574q92 0 158-66t65-158-65-158-158-65-158 65-66 158 66 158 158 66z m56 168q0-24-17-41t-39-16-39 16-17 41 17 39 38 16q24 0 41-16t16-39z m-391-112q0 55 56 55 55 0 55-55 0-56-55-56-56 0-56 56z m-56-223q23 0 40-16t16-40-16-40-40-16-40 16-16 40q0 24 16 40t40 16z m56-335q0 55 56 55 55 0 55-55 0-56-55-56-56 0-56 56z m279-112q0 22 17 39t38 17q24 0 41-17t16-39-17-40-39-17-39 17-17 40z m296 72q-16 16-16 39t16 39 39 17 40-17 15-39-15-39-40-15-39 15z m151 263q-24 0-40 16t-17 40q0 24 17 40t40 16 39-16 16-40-16-40-39-16z m-72 295q-16-16-40-16t-39 16-16 40 16 40 39 17 40-17 15-40-15-40z" horiz-adv-x="928" />

<glyph glyph-name="cloud" unicode="&#xe888;" d="M688 518q92 0 158-65t65-158-65-158-158-66l-447 0q-92 0-157 66t-66 158 66 158 157 65q1 0 30-4 30 53 81 84t112 31q60 0 113-31t81-84q28 4 30 4z m0-335q45 0 78 33t33 79-33 78-78 33-79-33-33-79l-112 0q0 111 89 178-33 46-89 46-45 0-78-33t-33-79q0-22 7-40l-104-38q-15 36-15 76-44-2-77-33t-34-77 33-78 78-33l447 0z" horiz-adv-x="928" />

<glyph glyph-name="rain" unicode="&#xe889;" d="M688 629q92 0 158-66t65-157-65-158-158-65l-447 0q-92 0-157 65t-66 158 66 157 157 66q1 0 30-3 30 52 81 83t112 32q60 0 113-32t81-83q28 3 30 3z m0-335q45 0 78 33t33 79-33 79-78 33-79-33-33-79l-112 0q0 109 90 178-33 45-90 45-45 0-78-33t-33-78q0-22 7-40l-104-38q-15 36-15 75-44-1-77-33t-34-76q0-46 33-79t78-33l447 0z m-579-320q-15-15-37-15t-38 16-16 38 16 38q9 9 47 28t71 33l34 14q-56-131-77-152z m223 0q-15-15-36-15t-39 15q-16 16-16 39t16 38q9 9 48 28t72 33l32 14q-55-131-77-152z m224 0q-16-15-38-15t-38 16-16 38 16 38q10 9 48 28t71 33l33 14q-56-131-76-152z" horiz-adv-x="928" />

<glyph glyph-name="flash" unicode="&#xe88a;" d="M911 797l-390-446 167-112-670-336 391 336-168 112z" horiz-adv-x="928" />

<glyph glyph-name="moon" unicode="&#xe88b;" d="M182 541q-52-82-52-181 0-141 101-243t243-101q98 0 181 53-187 18-321 151t-152 321z m166 256q-56-100-56-205 0-172 122-293t292-121q105 0 205 56-42-145-162-238t-275-93q-188 0-322 134t-134 323q0 154 93 274t237 163z" horiz-adv-x="928" />

<glyph glyph-name="moon-inv" unicode="&#xe88c;" d="M706 178q105 0 205 56-42-145-162-238t-275-93q-188 0-322 134t-134 323q0 154 93 274t237 163q-56-100-56-205 0-172 122-293t292-121z" horiz-adv-x="928" />

<glyph glyph-name="umbrella" unicode="&#xe88d;" d="M465 797q184 0 315-131t131-315l-112 0q0 16-12 29t-30 13-29-13-13-29l-111 0q0 16-13 29t-29 13-29-13-12-29l0-279q0-69-49-119t-119-50-118 50-49 119l112 0q0-24 16-40t39-16q24 0 40 16t16 40l0 279q0 16-12 29t-30 13-29-13-13-29l-111 0q0 16-13 29t-29 13-29-13-13-29l-112 0q0 184 131 315t316 131z" horiz-adv-x="928" />

<glyph glyph-name="chart-bar" unicode="&#xe88e;" d="M688-97l0 894 223 0 0-894-223 0z m-335 0l0 671 223 0 0-671-223 0z m-335 0l0 448 223 0 0-448-223 0z" horiz-adv-x="928" />

<glyph glyph-name="chart-pie" unicode="&#xe88f;" d="M402 256l-280-280q-104 123-104 281t104 278z m172 426q144-21 241-130t96-255q0-164-115-279t-280-115q-122 0-229 79l287 291 0 409z m-110-331l-320 320q143 115 320 126l0-446z" horiz-adv-x="928" />

<glyph glyph-name="chart-pie-alt" unicode="&#xe890;" d="M424 256l-296-296q-110 129-110 296t110 295z m44 39l-362 360q157 130 362 142l0-502z m55 390q143-21 238-130t95-256q0-164-115-280t-278-116q-127 0-233 78l293 290 0 414z" horiz-adv-x="873" />

<glyph glyph-name="key" unicode="&#xe891;" d="M633 685q-70 0-119-49t-50-117q0-14 4-32l11-57q-58-58-175-175t-174-173l0-66 111 0 0 111 112 0 0 112 111 0 0 47 80 79 57-11q18-3 31-3 70 0 119 49t48 118-48 118-118 49z m0 112q115 0 197-82t81-197-81-197-198-82q-28 0-51 5l-5-5 0-112-112 0 0-111-111 0 0-113-335 0 0 224 340 340q-5 23-5 52 0 115 82 196t198 82z m-57-278q0 55 56 55t56-55q0-57-56-57t-56 57z" horiz-adv-x="928" />

<glyph glyph-name="key-inv" unicode="&#xe892;" d="M633 797q115 0 197-82t81-197-81-197-198-82q-28 0-51 5l-5-5 0-112-112 0 0-111-111 0 0-113-335 0 0 224 340 340q-5 23-5 52 0 115 82 196t198 82z m0-335q22 0 39 16t16 41-16 39-40 16q-24 0-40-17t-16-38q0-24 17-41t40-16z" horiz-adv-x="928" />

<glyph glyph-name="hash" unicode="&#xe893;" d="M799 462l-153 0-28-223 181 0 0-112-195 0-28-224-112 0 28 224-223 0-28-224-111 0 27 224-139 0 0 112 154 0 27 223-181 0 0 112 196 0 27 223 112 0-28-223 223 0 28 223 112 0-28-223 139 0 0-112z m-293-223l28 223-223 0-28-223 223 0z" horiz-adv-x="817" />

<glyph glyph-name="at" unicode="&#xe894;" d="M851 127l-163 0q-54 0-88 46-60-47-136-47-92 0-157 65t-66 158 66 158 157 66l224 0 0-334 90 0 1-1q20 54 20 113 0 139-98 236t-237 98-236-98-98-237 98-237 236-97q141 0 237 98l79-79q-131-132-315-132t-316 132-131 315 131 316 316 131 315-131 131-315q0-120-60-224z m-275 222l0 112-112 0q-45 0-78-33t-33-79 33-78 79-33 78 33 33 78z" horiz-adv-x="928" />

<glyph glyph-name="pilcrow" unicode="&#xe895;" d="M688 797l0-112-112 0 0-782-112 0 0 782-111 0 0-782-112 0 0 448q-92 0-157 65t-66 157 66 158 157 66l447 0z" horiz-adv-x="705" />

<glyph glyph-name="dial" unicode="&#xe896;" d="M353 352q0 112 112 112t111-112-111-112-112 112z m372 316q0-23 16-39t39-17q18 0 35 14 96-124 96-274 0-128-62-229t-160-157q-103-60-225-60-128 0-229 62t-157 160q-60 103-60 224 0 149 95 272 15-12 32-12 24 0 41 17t16 39q0 18-12 33 96 77 219 93 3-22 19-36t37-15 37 15 18 36q121-15 218-90-13-15-13-36z m-484-316q0-91 66-157t158-66 158 66 65 157q0 92-66 158l-158 158-157-158q-66-66-66-158z" horiz-adv-x="928" />
</font>
</defs>
</svg>
